Welcome Guest ( Log In | Register )

> И неформату есть предел.

Рэп/хип-хоп/шансон/поп удаляются. Для них есть свои порталы.

 
ОтветитьСоздать новую тему
> Deverills Nexion - Sinister Musick Vol. III [demo] (2017), Ritual Ambient
post Dec 20 2017, 10:58:43
Post #1

Маньяк
**********
Group: Металариец
Posts: 1,237
Releases: 950
From: Prešov
On Forums: 4 years 1 month
Thanks: 22055 time(s)
Slovakia


(IMG:http://metalarea.org/images/audiocovers/2017_Dec/acov_tid299451_thumb.jpg)

*Artist: Deverills Nexion
*Album: Sinister Musick Vol. III [demo]
*Year: 2017
*Genre: Ritual Ambient
*Country: United Kingdom (IMG:http://metalarea.org/forum/style_images/flags/United%20Kingdom.png)
*Format: mp3@CBR320kbps
*Size: 40MB

Tracklist:
A1. Flow, Your Tears, To The Hills
A2. Place Of Secret Ecstasy
A3. Vocal Practice, IXth July
A4. Pentacle III
A5. Heard In A Dream
A6. Untitled
******************************
Total playing time: 15:54



Extended info
MMP Temple ‎– MMPXXIX
ONA coven of Wessex
Recorded Wessex, England, XIV-XVI ev

Tape-rip + Scans


Technical info
(IMG:http://metalarea.org/images/spectrogram/2017_Dec/bd51e1211dc6afd1d35a06131b4a4fe7.png)
Input File: A2. Place Of Secret Ecstasy.mp3
Channels : 2
Sample Rate : 48000
Precision : 16-bit
Duration : 00:02:59.28 = 8605584 samples ~ 13446.2 CDDA sectors
File Size : 7.39M
Bit Rate : 330k
Sample Encoding: MPEG audio (layer I, II or III)
Comments :
Title=Place Of Secret Ecstasy
Artist=Deverills Nexion
Album=Sinister Musick Vol. III
Tracknumber=02/06
Year=2017
Genre=Ritual Ambient



Register


Вернуться к началу страницы
  Insert nick Quick quote
+Цитировать сообщение

ОтветитьСоздать новую тему
2 User(s) are reading this topic (2 Guests and 0 Anonymous Users)
0 Members:

 



- Lo-Fi Version Support form
Copyrights and abuse reports form
Time is now: 24th May 2018 - 14:18:37