Welcome Guest ( Log In | Register )

> И неформату есть предел.

Рэп/хип-хоп/шансон/поп удаляются. Для них есть свои порталы.

> Neil Young And Promise Of The Real - The Visitor (2017), Blues Rock/Classic Rock
post Dec 20 2017, 11:50:17
Post #1

Герберт Уэст
**************
Group: Металариец
Posts: 2,048
Releases: 60
From: ранее: Кто здесь? нынче:Где-то на краю мира...
On Forums: 9 years 2 months
Thanks: 4188 time(s)
Unknown


(IMG:https://metalarea.org/images/audiocovers/2017_Dec/acov_tid299454_thumb.jpeg)

*Artist: Neil Young And Promise Of The Real
*Album: The Visitor
*Year: 2017
*Genre: Blues Rock/Classic Rock
*Country: United States (IMG:https://metalarea.org/forum/style_images/flags/United%20States.png)
*Format: mp3@CBR320kbps
*Size: 170MB

Tracklist:
1. Already Great 5:48
2. Fly By Night Deal 2:37
3. Almost Always 4:51
4. Stand Tall 5:13
5. Change Of Heart 5:54
6. Carnival 8:21
7. Diggin' A Hole 2:34
8. Children Of Destiny 3:25
9. When Bad Got Good 2:00
10. Forever 10:32
******************************
Total playing time: 51:15

Preview 1

Technical info
(IMG:https://metalarea.org/images/spectrogram/2017_Dec/421bc8c345af1fac55be065b925c9bd0.png)
Input File: 01. Already Great.mp3
Channels : 2
Sample Rate : 44100
Precision : 16-bit
Duration : 00:05:47.73 = 15334673 samples = 26079.4 CDDA sectors
File Size : 13.9M
Bit Rate : 320k
Sample Encoding: MPEG audio (layer I, II or III)
Comments :
Title=Already Great
Artist=Neil Young + Promise Of The Real
Album=The Visitor
Tracknumber=1/10
Year=2018
Genre=Rock
Discnumber=1/1



Register


Go to the top of the page
  Insert nick Quick quote
+Quote Post
 
Start new topic
Replies (1 - 2)
post Dec 20 2017, 19:56:31
Post #2

Два Литра
**
Group: Завсегдатай
Posts: 147
Releases: 0
From: Kiev
On Forums: 9 years 7 months
Thanks: 35 time(s)
Ukraine


Наверняка против Трампа гонит (IMG:style_emoticons/default/dwarf-1.gif)
Go to the top of the page
  Insert nick Quick quote
+Quote Post
post Dec 20 2017, 23:44:57
Post #3

Шесть Литров
******
Group: Металариец
Posts: 633
Releases: 0
From: Харьков
On Forums: 8 years 10 months
Thanks: 207 time(s)
Ukraine


Надо послушать.
Go to the top of the page
  Insert nick Quick quote
+Quote Post

Reply to this topicStart new topic
1 User(s) are reading this topic (1 Guests and 0 Anonymous Users)
0 Members:

 



- Lo-Fi Version Support form
Copyrights and abuse reports form
Time is now: 19th August 2018 - 02:27:53