Welcome Guest ( Log In | Register )

> 

Здесь релизы с живыми прямыми ссылками на lossless

 
ОтветитьСоздать новую тему
> Ulfrinn - Mountains Of Melancholy (2017), Depressive Black Metal (D8)
post Dec 20 2017, 15:48:47
Post #1

Angel Eviscerator
**************
Group: Металариец
Posts: 4,005
Releases: 2682
From: 55°35’N 38°08’E
On Forums: 9 years 7 months
Thanks: 51332 time(s)
Russian Federation


(IMG:http://metalarea.org/images/audiocovers/2017_Dec/acov_tid299468_thumb.jpg)

*Artist: Ulfrinn
*Album: Mountains Of Melancholy
*Year: 2017
*Genre: Depressive Black Metal
*Country: United States (IMG:http://metalarea.org/forum/style_images/flags/United%20States.png)
*Format: mp3@CBR320kbps
*Size: 89MB

Tracklist:
1.Of Blood Spilled in Hatred and Longing 05:46
2.Blackened Heart in a Serpent's Nest 04:26
3.In These Mountains There is Only Stillness 05:29
4.The Nature of Soul's Cthonic Descent 06:36
5.The Shadow of Departure 04:47
6.Forever Engulfed 06:10
7.Circle of Moss and Bones 05:43
******************************
Total playing time: 38:57



Technical info
(IMG:http://metalarea.org/images/spectrogram/2017_Dec/6fdf7d5706e432825bc225af6d636667.png)
Input File: 01 Of Blood Spilled in Hatred and Longing.mp3
Channels : 2
Sample Rate : 44100
Precision : 16-bit
Duration : 00:05:46.79 = 15293219 samples = 26008.9 CDDA sectors
File Size : 14.0M
Bit Rate : 324k
Sample Encoding: MPEG audio (layer I, II or III)
Comments :
Title=Of Blood Spilled in Hatred and Longing
Artist=Ulfrinn
Album=Mountains of Melancholy
Tracknumber=1
Year=2017
Genre=Black Metal



Register


Вернуться к началу страницы
  Insert nick Quick quote
+Цитировать сообщение

ОтветитьСоздать новую тему
1 User(s) are reading this topic (1 Guests and 0 Anonymous Users)
0 Members:

 



- Lo-Fi Version Support form
Copyrights and abuse reports form
Time is now: 19th February 2018 - 12:51:24