Welcome Guest ( Log In | Register )

> И неформату есть предел.

Рэп/хип-хоп/шансон/поп удаляются. Для них есть свои порталы.

> Psychedelic Witchcraft - Sound Of The Wind (2017), Occult Hard Rock
post Dec 20 2017, 18:56:05
Post #1

Правь статус, ####!111
**************
Group: Металариец
Posts: 34,736
Releases: 504
On Forums: 9 years 5 months
Thanks: 26760 time(s)
Russian Federation


(IMG:http://metalarea.org/images/audiocovers/2017_Dec/acov_tid299477_thumb.jpg)

*Artist: Psychedelic Witchcraft
*Album: Sound Of The Wind
*Year: 2017
*Genre: Occult Hard Rock
*Country: Italy (IMG:http://metalarea.org/forum/style_images/flags/Italy.png)
*Format: mp3@CBR320kbps
*Size: 89MB

Tracklist:
01. Maat 01:23
02. Lords Of The War 03:42
03. Wild We Go 04:30
04. Sound Of The Wind 04:33
05. Turn Me On 05:15
06. Rising On The Edge 04:51
07. The Warrens 03:59
08. Sin Of Mine 03:38
09. Let Me Be Myself 03:37
10. Horizons 02:52
******************************
Total playing time: 38:20



Technical info
(IMG:http://metalarea.org/images/spectrogram/2017_Dec/b05d9511991870fe7259fa688bd13e26.png)
Input File: 02. Lords Of The War.mp3
Channels : 2
Sample Rate : 44100
Precision : 16-bit
Duration : 00:03:42.23 = 9800431 samples = 16667.4 CDDA sectors
File Size : 9.01M
Bit Rate : 324k
Sample Encoding: MPEG audio (layer I, II or III)
Comments :
Title=Lords Of The War
Artist=Psychedelic Witchcraft
Album=Sound Of The Wind
Tracknumber=2
Year=2017
Genre=Rock



Register


Go to the top of the page
  Insert nick Quick quote
+Quote Post
 
Start new topic
Replies (1 - 5)
post Dec 20 2017, 21:47:57
Post #2

Правь статус, ####!111
**************
Group: Металариец
Posts: 34,736
Releases: 504
On Forums: 9 years 5 months
Thanks: 26760 time(s)
Russian Federation


@320

Register


Thanks:
Go to the top of the page
  Insert nick Quick quote
+Quote Post
post Jan 3 2018, 10:35:47
Post #3

South Of Heaven /адепт ВУДУ
**************
Group: Металариец
Posts: 13,163
Releases: 7
From: Санкт-Петербург
On Forums: 8 years 7 months
Thanks: 4805 time(s)
Russian Federation


Это есть очень хорошо, что группа возродилась (IMG:style_emoticons/default/dwarf-1.gif)


Thanks:
(1) Black Cat,
Go to the top of the page
  Insert nick Quick quote
+Quote Post
post Jan 7 2018, 17:08:05
Post #4

Правь статус, ####!111
**************
Group: Металариец
Posts: 34,736
Releases: 504
On Forums: 9 years 5 months
Thanks: 26760 time(s)
Russian Federation


ЦИТАТА(avkruchinin @ Jan 3 2018, 12:35:47) *
Это есть очень хорошо, что группа возродилась (IMG:style_emoticons/default/dwarf-1.gif)

Как говорится, не прошло и года (IMG:style_emoticons/default/1488.gif)
Go to the top of the page
  Insert nick Quick quote
+Quote Post
post Jan 7 2018, 17:18:18
Post #5

South Of Heaven /адепт ВУДУ
**************
Group: Металариец
Posts: 13,163
Releases: 7
From: Санкт-Петербург
On Forums: 8 years 7 months
Thanks: 4805 time(s)
Russian Federation


ЦИТАТА(vosmidesijatye @ Jan 7 2018, 19:08:05) *
Как говорится, не прошло и года (IMG:style_emoticons/default/1488.gif)

Для меня гораздо меньше, месяца два наверно, как я узнал, что они распались, так что даже расстроиться по настоящему не успел (IMG:style_emoticons/default/1488.gif)


Thanks:
Go to the top of the page
  Insert nick Quick quote
+Quote Post
post Feb 18 2018, 18:39:12
Post #6

напряжный чувак (с)
***********
Group: Металариец
Posts: 1,937
Releases: 24
From: Киев
On Forums: 11 years 9 months
Thanks: 2536 time(s)
Ukraine


Ого, только сейчас узнал, что реюнионнулись. Крутота.
Go to the top of the page
  Insert nick Quick quote
+Quote Post

Reply to this topicStart new topic
1 User(s) are reading this topic (1 Guests and 0 Anonymous Users)
0 Members:

 



- Lo-Fi Version Support form
Copyrights and abuse reports form
Time is now: 21st November 2018 - 21:01:16