Welcome Guest ( Log In | Register )

> Votov - Votov (2017), Death Metal
post Dec 21 2017, 11:12:38
Post #1

Аннигилятор пивА
Group Icon
Group: V.I.P
Posts: 45,751
Releases: 13654
From: Koenigsberg - TILZIT
On Forums: 11 years 8 months
Thanks: 302241 time(s)
Russian Federation


(IMG:https://metalarea.org/images/audiocovers/2017_Dec/acov_tid299505_thumb.jpg)

*Artist: Votov
*Album: Votov
*Year: 2017
*Genre: Death Metal
*Country: Canada (IMG:https://metalarea.org/forum/style_images/flags/Canada.png)
*Format: mp3@CBR320kbps
*Size: 72MB

Tracklist:
1. The Smear
2. Organic Incarceration
3. Absinuance
4. Indoctrination
5. Missing Link
6. By The Disgrace Of God
7. Reviled Deliverance
8. Dethroned Emperor
******************************
Total playing time: 27:09




Extended info
Matt Penner (Drums)
John Duke (Bass)
Chuck Labossiere (Guitar & Vocals)


Technical info
(IMG:https://metalarea.org/images/spectrogram/2017_Dec/409fdd74aef7810034fa9699eb300887.png)
Input File: 6 - By the Disgrace of God.mp3
Channels : 2
Sample Rate : 44100
Precision : 16-bit
Duration : 00:03:51.04 = 10188820 samples = 17327.9 CDDA sectors
File Size : 10.2M
Bit Rate : 353k
Sample Encoding: MPEG audio (layer I, II or III)
Comments :
Title=By the Disgrace of God
Artist=Votov
Album=Votov
Tracknumber=6/8
Year=2017
Genre=Death Metal



Register


Вернуться к началу страницы
  Insert nick Quick quote
+Цитировать сообщение
 
Создать новую тему
Replies (1 - 2)
post Dec 21 2017, 11:37:47
Post #2

Аннигилятор пивА
Group Icon
Group: V.I.P
Posts: 45,751
Releases: 13654
From: Koenigsberg - TILZIT
On Forums: 11 years 8 months
Thanks: 302241 time(s)
Russian Federation


угрюмый качевый дэт в духе SFU
MIRROR
Register
Вернуться к началу страницы
  Insert nick Quick quote
+Цитировать сообщение
post Feb 14 2018, 19:31:02
Post #3

Group: Подсевший
Posts: 24
Releases: 0
On Forums: 11 years 4 months
Thanks: 3 time(s)
Russian Federation


А ни чо так! Местами бодренько, местами придавливает нормально! заберу...
Вернуться к началу страницы
  Insert nick Quick quote
+Цитировать сообщение

ОтветитьСоздать новую тему
2 User(s) are reading this topic (2 Guests and 0 Anonymous Users)
0 Members:

 



- Lo-Fi Version Support form
Copyrights and abuse reports form
Time is now: 21st February 2018 - 22:00:40