Welcome Guest ( Log In | Register )

> Furia - Sagor [demo] (1999), Death/Black Metal
post Dec 21 2017, 11:40:27
Post #1

Serial Uploader
Group Icon
Group: V.I.P
Posts: 33,126
Releases: 31411
From: Lithuania
On Forums: 10 years 4 months
Thanks: 359210 time(s)
Lithuania


(IMG:https://metalarea.org/images/audiocovers/2017_Dec/acov_tid299507_thumb.jpg)

*Artist: Furia
*Album: Sagor [demo]
*Year: 1999
*Genre: Death/Black Metal
*Country: Sweden (IMG:https://metalarea.org/forum/style_images/flags/Sweden.png)
*Format: mp3@CBR320kbps
*Size: 69MB

Tracklist:
01. In The Graveyard Where I Mourned Her 07:31
02. Draknatt 05:57
03. Silverskärans Dans 05:40
04. Till Föruttnelsen 03:58
05. The Dancing Sprite 07:12
******************************
Total playing time: 30:18

Technical info
(IMG:https://metalarea.org/images/spectrogram/2017_Dec/ca0cff8ae74f7a2a6a9f6ce2d3e3120f.png)
Input File: 2. Draknatt.mp3
Channels : 2
Sample Rate : 44100
Precision : 16-bit
Duration : 00:05:57.87 = 15782067 samples = 26840.2 CDDA sectors
File Size : 14.4M
Bit Rate : 322k
Sample Encoding: MPEG audio (layer I, II or III)
Comments :
Title=Draknatt
Artist=Furia
Album=Sagor
Tracknumber=2/5
Year=2017



Register


Go to the top of the page
  Insert nick Quick quote
+Quote Post
 
Start new topic
Replies (1 - 4)
post Dec 21 2017, 16:21:25
Post #2

‖‖‖‖‖‖‖‖‖‖‖‖‖
*******
Group: Металариец
Posts: 739
Releases: 299
On Forums: 5 years 7 months
Thanks: 1665 time(s)
Sweden


Melodic Death/Black Metal


Thanks:
Go to the top of the page
  Insert nick Quick quote
+Quote Post
post Dec 21 2017, 18:16:07
Post #3

Маньяк
**********
Group: Металариец
Posts: 1,485
Releases: 23
From: Spain
On Forums: 11 years 1 month
Thanks: 1142 time(s)
Spain


QUOTE


Thanks:
(1) Storky,
Go to the top of the page
  Insert nick Quick quote
+Quote Post
post Jul 11 2018, 21:38:49
Post #4

добрый мизантроп
***********
Group: Металариец
Posts: 1,509
Releases: 0
From: Минск
On Forums: 7 years 11 months
Thanks: 448 time(s)
Madagascar


plz reup
Go to the top of the page
  Insert nick Quick quote
+Quote Post
post Jul 12 2018, 09:47:57
Post #5

Forever Underground
**************
Group: Металариец
Posts: 4,963
Releases: 0
On Forums: 3 years 6 months
Thanks: 4397 time(s)
Unknown


QUOTE(Storky @ Jul 11 2018, 22:38:49) *
plz reup

Same properties:
Register


Thanks:
(1) Storky,
Go to the top of the page
  Insert nick Quick quote
+Quote Post

Reply to this topicStart new topic
2 User(s) are reading this topic (2 Guests and 0 Anonymous Users)
0 Members:

 



- Lo-Fi Version Support form
Copyrights and abuse reports form
Time is now: 17th October 2018 - 22:28:24