Welcome Guest ( Log In | Register )

> И неформату есть предел.

Рэп/хип-хоп/шансон/поп удаляются. Для них есть свои порталы.

 
ОтветитьСоздать новую тему
> Stara Pieśń - Jantarowa Łza 1996 - 2011 [compilation] (2012), Heathen Ambient/Folk
post Dec 22 2017, 09:56:40
Post #1

...
Group Icon
Group: S-moderation team
Posts: 6,167
Releases: 1275
On Forums: 7 years 2 months
Thanks: 31191 time(s)
Unknown


(IMG:http://metalarea.org/images/audiocovers/2017_Dec/acov_tid299539_thumb.jpg)

*Artist: Stara Pieśń
*Album: Jantarowa Łza 1996 - 2011 [compilation]
*Year: 2012
*Genre: Heathen Ambient/Folk
*Country: Poland (IMG:http://metalarea.org/forum/style_images/flags/Poland.png)
*Format: mp3@CBR320kbps
*Size: 110MB

Tracklist:
01. Pieśń Bojana 04:07
02. O Czym Szumią Brzozy 02:14
03. Goreją Wici 03:19
04. Czarne Błyskawice 03:35
05. Przedburzna Czerwień 01:42
06. Zawył Wicher Ponad Urwiskiem 02:57
07. Opowieść... 02:52
08. Jantarowa Łza 02:14
09. Zatopiony Gród 02:35
10. Jesiennych Liści Tchnienie 01:47
11. Niebiańskie Imperium Władców Awdańcowych 03:19
12. Wy, Którzyście Mowę Ojców Zapomnieli 05:06
13. W Krainie Drzew (Gdzie Zapadł Zmierzch) 06:38
14. Dąb (Jam Jest Drzewem Pośród Drzew) 02:46
15. Płomień Mego Serca 02:30
******************************
Total playing time: 47:41

(IMG:http://metalarea.org/images/youtube.png)

Extended info
Tape rip + Scans.


Technical info
(IMG:http://metalarea.org/images/spectrogram/2017_Dec/11bdaf1c252336c122d5ca9a6c948c51.png)
Input File: 01. Pie?? Bojana.mp3
Channels : 2
Sample Rate : 44100
Precision : 16-bit
Duration : 00:04:07.56 = 10917440 samples = 18567.1 CDDA sectors
File Size : 9.90M
Bit Rate : 320k
Sample Encoding: MPEG audio (layer I, II or III)
Comments :
Title=PieВњГ± Bojana
Artist=Stara PieВњГ±
Album=Jantarowa ВЈza 1996 - 2011
Tracknumber=1
Year=2012
Genre=80



Register


Вернуться к началу страницы
  Insert nick Quick quote
+Цитировать сообщение

ОтветитьСоздать новую тему
1 User(s) are reading this topic (1 Guests and 0 Anonymous Users)
0 Members:

 



- Lo-Fi Version Support form
Copyrights and abuse reports form
Time is now: 22nd May 2018 - 18:51:29