Welcome Guest ( Log In | Register )

> Heresi - Psalm I [ep] (2005), Black Metal
post Oct 2 2007, 11:08:14
Post #1

Маньяк
**********
Group: Металариец
Posts: 1,313
Releases: 232
From: На семи холмах
On Forums: 14 years 8 months
Thanks: 5699 time(s)
Russian Federation


(IMG:http://metalarea.org/images/audiocovers/2007_Oct/acov_tid29954_thumb.jpg)

*Artist: Heresi
*Album: Psalm I [ep]
*Year: 2005
*Genre: Black Metal
*Country: Sweden
*Format: mp3@VBR250
*Size: 28 Мб.

Tracklist:
01 - Civitate Dei - Ondskans Hov
02 - Deus Absconditus
03 - Efter Själens Stympning

*************************
Total playing time: 15:44

Единственный участник группы - Skamfer, ранее бывший в Ondskapt

Register


Go to the top of the page
  Insert nick Quick quote
+Quote Post
 
Start new topic
Replies (1 - 5)
post Jul 22 2011, 22:20:10
Post #2

Мегаманьяк
***********
Group: Металариец
Posts: 1,828
Releases: 70
On Forums: 13 years 1 month
Thanks: 3067 time(s)
Russian Federation


mp3@CBR320 kbps (lame 3.93.1)
Register


Go to the top of the page
  Insert nick Quick quote
+Quote Post
post Sep 27 2014, 14:40:07
Post #3

TomheT
**************
Group: Металариец
Posts: 4,177
Releases: 75
From: Малоярославец
On Forums: 12 years 7 months
Thanks: 18996 time(s)
Russian Federation


CD-Rip Flac (.cue+log+scans)-156Mb
Register


logfile
Exact Audio Copy V1.0 beta 3 from 29. August 2011

EAC extraction logfile from 27. September 2014, 15:40

Heresi / Psalm I

Used drive : ASUS DRW-1814BLT Adapter: 0 ID: 1

Read mode : Secure
Utilize accurate stream : Yes
Defeat audio cache : Yes
Make use of C2 pointers : No

Read offset correction : 6
Overread into Lead-In and Lead-Out : No
Fill up missing offset samples with silence : Yes
Delete leading and trailing silent blocks : No
Null samples used in CRC calculations : Yes
Used interface : Installed external ASPI interface

Used output format : User Defined Encoder
Selected bitrate : 320 kBit/s
Quality : High
Add ID3 tag : Yes
Command line compressor : C:\Program Files\Exact Audio Copy\Flac\flac.exe
Additional command line options : -V -8 %source%

TOC of the extracted CD

Track | Start | Length | Start sector | End sector
---------------------------------------------------------
1 | 0:00.00 | 5:46.30 | 0 | 25979
2 | 5:46.30 | 5:38.40 | 25980 | 51369
3 | 11:24.70 | 4:20.31 | 51370 | 70900

Range status and errors

Selected range

Filename C:\Users\ShmiT\Desktop\My CD-Rips\Heresi\2005 Psalm I [ep]\Heresi - Psalm I.wav

Peak level 97.7 %
Extraction speed 3.5 X
Range quality 100.0 %
Test CRC C625B6D6
Copy CRC C625B6D6
Copy OK

No errors occurred

AccurateRip summary

Track 1 accurately ripped (confidence 5) [ACA39F2A] (AR v1)
Track 2 accurately ripped (confidence 4) [801FC279] (AR v1)
Track 3 accurately ripped (confidence 6) [9079F11E] (AR v1)

All tracks accurately ripped

End of status report

---- CUETools DB Plugin V2.1.4

[CTDB TOCID: d_eKHk5ahrR69ChBd683OqfnofQ-] found
Submit result: d_eKHk5ahrR69ChBd683OqfnofQ- has been confirmed
Track | CTDB Status
1 | (2/2) Accurately ripped
2 | (2/2) Accurately ripped
3 | (2/2) Accurately ripped

==== Log checksum CDB90F9C59DCA6AB7EAC9176F3650C8A7BF898E1F8FA40DACC532AA5CFC8FE22 ====

CD-Rip mp3*320kbps (lame 3.93.1+scans)-69Mb
Register


Go to the top of the page
  Insert nick Quick quote
+Quote Post
post Sep 27 2014, 15:43:55
Post #4

I hate you all
**************
Group: Металариец
Posts: 2,414
Releases: 80
From: Ukraine
On Forums: 13 years 6 months
Thanks: 6125 time(s)
Ukraine


Отменный проект , жаль что в последнее время нечего не слышно про продолжение сего проекта .


Thanks:
(2) kryptor, ShmiT,
Go to the top of the page
  Insert nick Quick quote
+Quote Post
post Oct 19 2020, 10:28:43
Post #5

Три Литра
***
Group: Завсегдатай
Posts: 232
Releases: 0
From: Польша
On Forums: 7 years 9 months
Thanks: 126 time(s)
Poland


Can re-up someone?
Go to the top of the page
  Insert nick Quick quote
+Quote Post
post Oct 19 2020, 16:31:16
Post #6

Правь статус, ####!111
**************
Group: Металариец
Posts: 7,194
Releases: 165
From: URUGUAY
On Forums: 14 years 2 months
Thanks: 20550 time(s)
Uruguay


320
Register


Go to the top of the page
  Insert nick Quick quote
+Quote Post

Reply to this topicStart new topic
1 User(s) are reading this topic (1 Guests and 0 Anonymous Users)
0 Members:

 



- Lo-Fi Version Support form
Copyrights and abuse reports form
Time is now: 27th November 2020 - 06:28:09