Welcome Guest ( Log In | Register )

> Stiriah - Aurora (2017), Black Metal
post Dec 23 2017, 00:09:36
Post #1

Правь статус, ####!111
**************
Group: Металариец
Posts: 3,327
Releases: 662
From: Brazil
On Forums: 6 years 8 months
Thanks: 26133 time(s)
Brazil


(IMG:https://metalarea.org/images/audiocovers/2017_Dec/acov_tid299575_thumb.jpg)

*Artist: Stiriah
*Album: Aurora
*Year: 2017
*Genre: Black Metal
*Country: Germany (IMG:https://metalarea.org/forum/style_images/flags/Germany.png)
*Format: mp3@CBR320kbps
*Size: 80MB

Tracklist:
1. Ground of Nebula 07:39
2. Trapped 06:46
3. Source of Emptiness 10:08
4. Enlightenment 03:13
5. Aurora 06:53
******************************
Total playing time: 34:39



Technical info
(IMG:https://metalarea.org/images/spectrogram/2017_Dec/c8790cdd366495bcaf5e3e256eebc3f8.png)
Input File: 05 Aurora.mp3
Channels : 2
Sample Rate : 44100
Precision : 16-bit
Duration : 00:06:52.72 = 18200996 samples = 30954.1 CDDA sectors
File Size : 16.6M
Bit Rate : 321k
Sample Encoding: MPEG audio (layer I, II or III)
Comments :
Title=Aurora
Artist=Stiriah
Album=Aurora
Tracknumber=5
Year=2017



Register


Go to the top of the page
  Insert nick Quick quote
+Quote Post
 
Start new topic
Replies (1 - 3)
post Dec 24 2017, 16:56:20
Post #2

..ще до загибелі
**********
Group: Металариец
Posts: 1,154
Releases: 0
From: Мати Руських Міст
On Forums: 7 years 7 months
Thanks: 883 time(s)
Ukraine


странно, но неплохо, хоть и обычно. изза мелодичности чтоле..
Go to the top of the page
  Insert nick Quick quote
+Quote Post
post Jul 12 2018, 15:13:34
Post #3

добрый мизантроп
***********
Group: Металариец
Posts: 1,509
Releases: 0
From: Минск
On Forums: 7 years 11 months
Thanks: 448 time(s)
Madagascar


Очень круто душевно и не слащаво для немцев.
Go to the top of the page
  Insert nick Quick quote
+Quote Post
post Jul 12 2018, 17:24:25
Post #4

добрый мизантроп
***********
Group: Металариец
Posts: 1,509
Releases: 0
From: Минск
On Forums: 7 years 11 months
Thanks: 448 time(s)
Madagascar


from dark
Register


Thanks:
(1) Korpse,
Go to the top of the page
  Insert nick Quick quote
+Quote Post

Reply to this topicStart new topic
2 User(s) are reading this topic (2 Guests and 0 Anonymous Users)
0 Members:

 



- Lo-Fi Version Support form
Copyrights and abuse reports form
Time is now: 17th October 2018 - 21:50:37