Welcome Guest ( Log In | Register )

> Frozen Graves - Frozen Graves (2017), Black Metal
post Dec 23 2017, 13:42:43
Post #1

Правь статус, ####!111
**************
Group: Металариец
Posts: 3,329
Releases: 662
From: Brazil
On Forums: 6 years 8 months
Thanks: 26152 time(s)
Brazil


(IMG:https://metalarea.org/images/audiocovers/2017_Dec/acov_tid299598_thumb.jpg)

*Artist: Frozen Graves
*Album: Frozen Graves
*Year: 2017
*Genre: Black Metal
*Country: Finland (IMG:https://metalarea.org/forum/style_images/flags/Finland.png)
*Format: mp3@CBR320kbps
*Size: 91MB

Tracklist:
1. Introduction 01:51
2. Sea Crypt 06:01
3. Eye On The Flame 04:46
4. Eaters Of Flesh 06:23
5. Enter The Brotherhood 04:58
6. Stillwork 04:00
7. A Dying Pujari 04:59
8. Burial Silence 06:07
******************************
Total playing time: 39:05



Extended info
This LP was recorded in MMXVI in Elemental Cavern, Finland, with the exception of vocals that were recorded in Le Caveau Studio, France.

Lineup

Luxixul Sumering Auter Drums, Keyboards
See also: Asymmetry, Aura Saturnal, Cosmic Church
Vandra Guitars, Vocals
See also: Asymmetry
Déchéance Vocals (2016-present)
See also: Cénotaphe, Nécropole


Technical info
(IMG:https://metalarea.org/images/spectrogram/2017_Dec/07ce424abc0ccfd816e9b6f8a8195a72.png)
Input File: 06 Stillwork.mp3
Channels : 2
Sample Rate : 44100
Precision : 16-bit
Duration : 00:04:00.30 = 10597054 samples = 18022.2 CDDA sectors
File Size : 9.68M
Bit Rate : 322k
Sample Encoding: MPEG audio (layer I, II or III)
Comments :
Title=Stillwork
Artist=Frozen Graves
Album=Frozen Graves
Tracknumber=6
Year=2017
Genre=Black Metal



Register


Go to the top of the page
  Insert nick Quick quote
+Quote Post
 
Start new topic
Replies (1 - 8)
post Dec 23 2017, 20:15:00
Post #2

Аполітичний
**************
Group: Металариец
Posts: 5,210
Releases: 143
From: Тимчасово окупована територія - Юзівка
On Forums: 10 years 1 month
Thanks: 5430 time(s)
Ukraine




Хорошая мелодика и вокал (IMG:style_emoticons/default/20.gif)


Thanks:
(2) abob, Fess,
Go to the top of the page
  Insert nick Quick quote
+Quote Post
post Dec 23 2017, 20:25:42
Post #3

I hate you all
***********
Group: Металариец
Posts: 1,805
Releases: 74
From: Ukraine
On Forums: 11 years 5 months
Thanks: 4622 time(s)
Ukraine


Такой состав , качать обязательно !
Go to the top of the page
  Insert nick Quick quote
+Quote Post
post Dec 24 2017, 07:40:12
Post #4

стазис эпидерсис
**************
Group: Металариец
Posts: 2,037
Releases: 0
On Forums: 2 years 8 months
Thanks: 1237 time(s)
Unknown


ЦИТАТА(lestllk @ 23rd December 2017 - 17:42:43) *
Cosmic Church

кочаю.
очень снежная музыка и по моему очень душевно всё здесь.
люблю такие вещи с ненавязчивым синтезаторным фоном, что тут скажешь.


Thanks:
(1) Eldarmoon,
Go to the top of the page
  Insert nick Quick quote
+Quote Post
post Dec 24 2017, 15:39:42
Post #5

Два Литра
**
Group: Завсегдатай
Posts: 123
Releases: 21
From: Узбекистан
On Forums: 8 years 4 months
Thanks: 161 time(s)
Uzbekistan


Да, несколько раз за день прогнал этот альбом. Вещь отличная.
Go to the top of the page
  Insert nick Quick quote
+Quote Post
post Dec 25 2017, 16:21:18
Post #6

Четыре Литра
****
Group: Металариец
Posts: 300
Releases: 0
On Forums: 11 months 3 weeks
Thanks: 116 time(s)
Unknown


И снова финны смогли! Тот случай когда музыка нравится с первых секунд звучания. Альбом супер! Их потенциал был слышен еще с демки 2015 года. Здесь они все свои идеи воплотили в лучшем виде.
Go to the top of the page
  Insert nick Quick quote
+Quote Post
post May 28 2018, 01:16:06
Post #7

Два Литра
**
Group: Завсегдатай
Posts: 100
Releases: 0
On Forums: 6 years 1 month
Thanks: 3 time(s)
United States


re up
Go to the top of the page
  Insert nick Quick quote
+Quote Post
post Jun 2 2018, 10:53:17
Post #8

Семь Литров
*******
Group: Металариец
Posts: 714
Releases: 117
On Forums: 4 years 2 months
Thanks: 3361 time(s)
Unknown


Register


Go to the top of the page
  Insert nick Quick quote
+Quote Post
post Jun 13 2018, 17:07:42
Post #9

Маньяк
**********
Group: Металариец
Posts: 1,408
Releases: 1096
From: Prešov
On Forums: 4 years 6 months
Thanks: 25642 time(s)
Slovakia


(IMG:http://i105.fastpic.ru/big/2018/0613/65/1fcd2ed44ff54170ad6c53bf15c3d565.jpg)
Frozen Graves ‎– 2017 - Frozen Graves
Kuunpalvelus ‎– KUU-0118

CD-rip / 320 Kbps
Register


Go to the top of the page
  Insert nick Quick quote
+Quote Post

Reply to this topicStart new topic
2 User(s) are reading this topic (2 Guests and 0 Anonymous Users)
0 Members:

 



- Lo-Fi Version Support form
Copyrights and abuse reports form
Time is now: 19th October 2018 - 19:09:27