Welcome Guest ( Log In | Register )

> И неформату есть предел.

Рэп/хип-хоп/шансон/поп удаляются. Для них есть свои порталы.

> Dysfori - Ord Från Graven [ep] (2017), Depressive Rock
post Dec 23 2017, 16:05:23
Post #1

Правь статус, ####!616
**************
Group: Металариец
Posts: 4,329
Releases: 2945
From: 55°35’N 38°08’E
On Forums: 9 years 10 months
Thanks: 54877 time(s)
Unknown


(IMG:http://metalarea.org/images/audiocovers/2017_Dec/acov_tid299604_thumb.jpg)

*Artist: Dysfori
*Album: Ord Från Graven [ep]
*Year: 2017
*Genre: Depressive Rock
*Country: Sweden (IMG:http://metalarea.org/forum/style_images/flags/Sweden.png)
*Format: mp3@CBR320kbps
*Size: 48MB

Tracklist:
1.Vemod 04:48
2.Euforins Sista Andetag 05:09
3.För Evigt Bortglömd 05:12
4.Och Åter Kom Gryningen 05:03
******************************
Total playing time: 20:12




Technical info
(IMG:http://metalarea.org/images/spectrogram/2017_Dec/28fb690351629d65f7d6e3033e3084e0.png)
Input File: 01 Vemod.mp3
Channels : 2
Sample Rate : 44100
Precision : 16-bit
Duration : 00:04:48.76 = 12734360 samples = 21657.1 CDDA sectors
File Size : 11.7M
Bit Rate : 324k
Sample Encoding: MPEG audio (layer I, II or III)
Comments :
Title=Vemod
Artist=Dysfori
Album=Ord frГҐn graven
Tracknumber=1
Year=2017



Register


Вернуться к началу страницы
  Insert nick Quick quote
+Цитировать сообщение
 
Создать новую тему
Replies (1 - 2)
post Dec 24 2017, 07:44:12
Post #2

i listen to black metal
**************
Group: Металариец
Posts: 2,154
Releases: 128
From: Москва-Лианозово
On Forums: 11 years 5 months
Thanks: 1987 time(s)
Russian Federation


где депресив,где вокал?
кто будет нормально оформлять?
Вернуться к началу страницы
  Insert nick Quick quote
+Цитировать сообщение
post Dec 24 2017, 08:47:36
Post #3

Forever Underground
**************
Group: Металариец
Posts: 4,387
Releases: 0
On Forums: 3 years 1 month
Thanks: 3427 time(s)
Unknown


QUOTE(Victim of fate @ Dec 24 2017, 07:44:12) *
где депресив,где вокал?
кто будет нормально оформлять?

On Discogs they in fact have been labeled as "alternative rock" on this last release... (IMG:style_emoticons/default/crazy.gif) https://www.discogs.com/Dysfori-Ord-Fr%C3%A...elease/10644230
Thanks a lot smysl! (IMG:style_emoticons/default/9.gif) Would be great if someone should find also the bonus-tracks included in the tape version (limited to only 10 copies) (IMG:style_emoticons/default/21.gif)
Вернуться к началу страницы
  Insert nick Quick quote
+Цитировать сообщение

ОтветитьСоздать новую тему
1 User(s) are reading this topic (1 Guests and 0 Anonymous Users)
0 Members:

 



- Lo-Fi Version Support form
Copyrights and abuse reports form
Time is now: 22nd May 2018 - 18:50:57