Welcome Guest ( Log In | Register )

> Правила / Rules

Тут только для чтения лежат низкобитрейтные (<192kbps) релизы, для которых есть аналоги в высокобитрейтных форумах.

Here goes (and stand in read only mode) low bitrate releases (<192kbps) which were already replaced by high bitrate releases in corresponding forums.

> Pissboiler - In The Lair Of Lucid Nightmares (2017), Drone/Doom Metal
post Dec 23 2017, 18:05:52
Post #1

Мегаманьяк
***********
Group: Металариец
Posts: 1,707
Releases: 1476
From: Одесса
On Forums: 10 years 10 months
Thanks: 12041 time(s)
Ukraine


(IMG:http://metalarea.org/images/audiocovers/2017_Dec/acov_tid299608_thumb.jpg)

*Artist: Pissboiler
*Album: In The Lair Of Lucid Nightmares
*Year: 2017
*Genre: Drone/Doom Metal
*Country: Sweden (IMG:http://metalarea.org/forum/style_images/flags/Sweden.png)
*Format: mp3@CBR128kbps (IMG:http://metalarea.org/images/bit_low.gif)
*Size: 44MB

Tracklist:
1. Ruins of the Past 17:45
2. Stealth 02:59
3. Pretend It Will End 10:02
4. Cutters 15:21
******************************
Total playing time: 46:07



Extended info
Line - up:

Pontus Ottosson - Guitars (Snailking)
Karl Jonas Wijk - Drums, Guitars (Droneologist, ex-Snailking)
LG - Vocals (lead), Bass

(IMG:https://www.metal-archives.com/images/3/5/4/0/3540399973_photo.jpg?1220)


Technical info
(IMG:http://metalarea.org/images/spectrogram/2017_Dec/c465f9778fd306acf3882ec8167969b2.png)
Input File: 03. Pretend It Will End.MP3
Channels : 2
Sample Rate : 44100
Precision : 16-bit
Duration : 00:10:02.91 = 26588243 samples = 45218.1 CDDA sectors
File Size : 9.65M
Bit Rate : 128k
Sample Encoding: MPEG audio (layer I, II or III)
Comments :
Title=Pretend It Will End
Artist=Pissboiler
Album=In The Lair Of Lucid Nightmares
Tracknumber=3
Year=2017
Genre=Drone / Doom Metal



Register


Thanks:
(2) Cruor, Rosen,
Go to the top of the page
  Insert nick Quick quote
+Quote Post
 
Start new topic
Replies (1 - 1)
post Feb 15 2018, 16:41:42
Post #2

Group: Подсевший
Posts: 33
Releases: 0
On Forums: 4 years 8 months
Thanks: 2 time(s)
Poland


In 320 kbps please.
Go to the top of the page
  Insert nick Quick quote
+Quote Post

Причина закрытия (Borderline1991 17-05-2018): Pissboiler - In The Lair Of Lucid Nightmares (2017)
Closed TopicStart new topic
1 User(s) are reading this topic (1 Guests and 0 Anonymous Users)
0 Members:

 



- Lo-Fi Version Support form
Copyrights and abuse reports form
Time is now: 25th April 2019 - 20:48:00