Welcome Guest ( Log In | Register )

> И неформату есть предел.

Рэп/хип-хоп/шансон/поп удаляются. Для них есть свои порталы.

> Nick Cave And The Bad Seeds - Henry's Dream (1992), Alternative Rock (D6)
post Dec 24 2017, 00:54:24
Post #1
BAN
Banned till
May 23 2018, 08:06:31



(IMG:http://metalarea.org/images/audiocovers/2017_Dec/acov_tid299619_thumb.jpg)

*Artist: Nick Cave And The Bad Seeds
*Album: Henry's Dream
*Year: 1992
*Genre: Alternative Rock
*Country: Australia (IMG:http://metalarea.org/forum/style_images/flags/Australia.png)
*Format: mp3@CBR320kbps
*Size: 96MB

Tracklist:
01.Papa Won't Leave You, Henry
02.I Had A Dream, Joe
03.Straight To You
04.Brother, My Cup Is Empty
05.Christina The Astonishing
06.When I First Came To Town
07.John Finns' Wife
08.Loom Of The Land
09.Jack The Ripper
******************************
Total playing time: 41:35

Extended info
Remastered 2010


Technical info
(IMG:http://metalarea.org/images/spectrogram/2017_Dec/bb2b592deb85cb8efb320a9cb040a360.png)
Input File: 1 - Nick Cave & The Bad Seeds - Papa Won\'t You Leave_ Henry (2010 Remastered Version).mp3
Channels : 2
Sample Rate : 44100
Precision : 16-bit
Duration : 00:05:55.62 = 15682710 samples = 26671.3 CDDA sectors
File Size : 14.3M
Bit Rate : 322k
Sample Encoding: MPEG audio (layer I, II or III)
Comments :
Title=Papa Won't You Leave, Henry (2010 Remastered Version)
Artist=Nick Cave & The Bad Seeds
Album=Henry's Dream (2010 Remastered Version)
Tracknumber=1/9
Year=2010



Register


Thanks:
Вернуться к началу страницы
  Insert nick Quick quote
+Цитировать сообщение
 
Создать новую тему
Replies (1 - 5)
post Jan 9 2018, 23:29:01
Post #2

Шесть Литров
******
Group: Металариец
Posts: 513
Releases: 0
From: Харьков
On Forums: 8 years 7 months
Thanks: 162 time(s)
Ukraine


Не лучший диск Кейва, на мой взгляд. Любой из периода 1988-2001 гг. поставлю выше.
Вернуться к началу страницы
  Insert nick Quick quote
+Цитировать сообщение
post Jan 25 2018, 15:26:52
Post #3

Враг Газпрома
**************
Group: Металариец
Posts: 5,311
Releases: 0
On Forums: 8 years 11 months
Thanks: 1716 time(s)
Russian Federation


ЦИТАТА(Ghostb @ Jan 10 2018, 01:29:01) *
Не лучший диск Кейва, на мой взгляд. Любой из периода 1988-2001 гг. поставлю выше.

Взгляд замылился. Одна из лучших работ Кейва, этакий разухабистый по настроению альбом, особенно - после камерного дельтаблюзового The Good Son. Напоминает временный всплеск эмоций и сил после того, как опохмелился, пьяное веселье от того, что пока "еще есть", но скоро кончится, а взять больше негде. На вскидку - три таких похмельно-танцевальных номера с запоминающимися мелодиями и въедливыми рефренами, аж прям "щас спою": Papa Won't Leave You, Henry, Brother, My Cup Is Empty, I Had A Dream, Joe. Последнюю я так вообще считаю черноюморным ответом на фразу веселого американского негра Мартина Л.Кинга. Да, еще есть Christina The Astonishing, пьяный плач по себе любимому и какой-то там Кристинке.


Thanks:
(1) Ghostb,
Вернуться к началу страницы
  Insert nick Quick quote
+Цитировать сообщение
post Jan 25 2018, 19:08:07
Post #4

Шесть Литров
******
Group: Металариец
Posts: 513
Releases: 0
From: Харьков
On Forums: 8 years 7 months
Thanks: 162 time(s)
Ukraine


ЦИТАТА(vam1972 @ Jan 25 2018, 16:26:52) *
этакий разухабистый по настроению альбом, особенно - после камерного дельтаблюзового The Good Son

Я согласен, но, видимо, более камерный Кейв мне несколько ближе. И вещей уровня "The Ship Song"/"The Weeping Song" с предыдущего, на мой взгляд, здесь нет, хотя, перечисленные тобой вполне хороши.
Вернуться к началу страницы
  Insert nick Quick quote
+Цитировать сообщение
post Jan 25 2018, 20:33:00
Post #5

Watch The Water
********
Group: Металариец
Posts: 896
Releases: 30
On Forums: 11 years 3 months
Thanks: 1190 time(s)
El Salvador


ЦИТАТА(vam1972 @ Jan 25 2018, 17:26:52) *
Да, еще есть Christina The Astonishing, пьяный плач по себе любимому и какой-то там Кристинке.

Просвещайся (IMG:style_emoticons/default/bye.gif)
https://en.wikipedia.org/wiki/Christina_the_Astonishing
Кейв сильно религиозный чувак стал, как слез с героина.

А альбом, наверное, любимый у Кейва. Сильно пьяный, но не разухабистый, даже не веселый, скорее отдающий угрюмым провинциальным мраком.
Вернуться к началу страницы
  Insert nick Quick quote
+Цитировать сообщение
post Jan 26 2018, 04:30:03
Post #6

Враг Газпрома
**************
Group: Металариец
Posts: 5,311
Releases: 0
On Forums: 8 years 11 months
Thanks: 1716 time(s)
Russian Federation


ЦИТАТА(Njelfur @ Jan 25 2018, 22:33:00) *

Спасибо, конечно. Только я с этим еще году в 1994 разобрался, когда лирику Кейвовскую переводил.
Вернуться к началу страницы
  Insert nick Quick quote
+Цитировать сообщение

ОтветитьСоздать новую тему
2 User(s) are reading this topic (2 Guests and 0 Anonymous Users)
0 Members:

 



- Lo-Fi Version Support form
Copyrights and abuse reports form
Time is now: 24th May 2018 - 14:21:21