Welcome Guest ( Log In | Register )

> И неформату есть предел.

Рэп/хип-хоп/шансон/поп удаляются. Для них есть свои порталы.

> Nick Cave And The Bad Seeds - Let Love In (1994), Alternative Rock (D6)
post Dec 24 2017, 01:16:16
Post #1

Два Литра
**
Group: Завсегдатай
Posts: 101
Releases: 6
On Forums: 3 months 2 weeks
Thanks: 189 time(s)
Unknown


(IMG:http://metalarea.org/images/audiocovers/2017_Dec/acov_tid299620_thumb.jpg)

*Artist: Nick Cave And The Bad Seeds
*Album: Let Love In
*Year: 1994
*Genre: Alternative Rock
*Country: Australia (IMG:http://metalarea.org/forum/style_images/flags/Australia.png)
*Format: mp3@CBR320kbps
*Size: 111MB

Tracklist:
01.Do You Love Me?
02.Nobody's Baby Now
03.Loverman
04.Jangling Jack
05.Red Right Hand
06.I Let Love In
07.Thirsty Dog
08.Ain't Gonna Rain Anymore
09.Lay Me Low
10.Do You Love Me? (Part 2)
******************************
Total playing time: 48:20

Extended info
Remastered 2011 (Digital)


Technical info
(IMG:http://metalarea.org/images/spectrogram/2017_Dec/a0ff12fca781f7df4c02dd17e6f24017.png)
Input File: 01 - Nick Cave & The Bad Seeds - Do You Love Me_ (2011 Remastered Version).mp3
Channels : 2
Sample Rate : 44100
Precision : 16-bit
Duration : 00:05:57.31 = 15757239 samples = 26798 CDDA sectors
File Size : 14.4M
Bit Rate : 322k
Sample Encoding: MPEG audio (layer I, II or III)
Comments :
Title=Do You Love Me? (2011 Remastered Version)
Artist=Nick Cave & The Bad Seeds
Album=Let Love In (2011 Remastered Version)
Tracknumber=1/10
Year=1994



Register


Вернуться к началу страницы
  Insert nick Quick quote
+Цитировать сообщение
 
Создать новую тему
Replies (1 - 5)
post Dec 25 2017, 07:52:18
Post #2

Ёлд ХеллоВяйне
Group Icon
Group: V.I.P
Posts: 24,795
Releases: 129
From: Питер
On Forums: 11 years 3 months
Thanks: 13486 time(s)
Russian Federation


QUOTE(INDARKNESS @ 24th December 2017 - 03:16:16) *
01.Do You Love Me?


Мегапесня (IMG:style_emoticons/default/pray.gif)


Thanks:
Вернуться к началу страницы
  Insert nick Quick quote
+Цитировать сообщение
post Dec 25 2017, 10:08:52
Post #3
BAN
Banned till
Feb 20 2018, 02:51:15



я как истенный паклонег миталики знаком только с пейстней Ловермен. Настало время ознакомиццо с оригиналом
Вернуться к началу страницы
  Insert nick Quick quote
+Цитировать сообщение
post Dec 26 2017, 11:16:59
Post #4

Четыре Литра
****
Group: Металариец
Posts: 352
Releases: 0
From: Харьков
On Forums: 8 years 4 months
Thanks: 92 time(s)
Ukraine


Один из лучших его альбомов (хотя, следующий люблю даже больше).


Thanks:
Вернуться к началу страницы
  Insert nick Quick quote
+Цитировать сообщение
post Dec 26 2017, 11:53:58
Post #5

Два Литра
**
Group: Завсегдатай
Posts: 101
Releases: 6
On Forums: 3 months 2 weeks
Thanks: 189 time(s)
Unknown


мне нравится The Good Son.(1990)
Вернуться к началу страницы
  Insert nick Quick quote
+Цитировать сообщение
post Dec 26 2017, 19:42:24
Post #6

Два Литра
**
Group: Завсегдатай
Posts: 134
Releases: 0
From: Kiev
On Forums: 9 years 1 month
Thanks: 30 time(s)
Ukraine


05.Red Right Hand круче всего. как то был в мегамаркете и заиграла эта вещь, ну и сюрприз думаю, а то они обычно всегда какую-то бездарную попсу крутят


Thanks:
Вернуться к началу страницы
  Insert nick Quick quote
+Цитировать сообщение

ОтветитьСоздать новую тему
1 User(s) are reading this topic (1 Guests and 0 Anonymous Users)
0 Members:

 



- Lo-Fi Version Support form
Copyrights and abuse reports form
Time is now: 19th February 2018 - 08:49:39