Welcome Guest ( Log In | Register )

> И неформату есть предел.

Рэп/хип-хоп/шансон/поп удаляются. Для них есть свои порталы.

> Mortiis - The Unraveling Mind (2017), Dark Ambient/Electronic/Tribal (D17)
post Dec 24 2017, 11:30:04
Post #1

𝕻𝕬𝕹𝕬𝕮𝕰𝕬
******
Group: Металариец
Posts: 600
Releases: 339
On Forums: 6 years 5 months
Thanks: 4725 time(s)
Unknown


(IMG:http://metalarea.org/images/audiocovers/2017_Dec/acov_tid299640_thumb.jpg)

*Artist: Mortiis
*Album: The Unraveling Mind
*Year: 2017
*Genre: Dark Ambient/Electronic/Tribal
*Country: Norway (IMG:http://metalarea.org/forum/style_images/flags/Norway.png)
*Format: mp3@CBR192kbps
*Size: 61MB

Tracklist:
1. Virosus - Silentium 03:17
2. Hollowed 03:49
3. Submit 04:42
4. Submit (Flux) 04:42
5. The Unraveling Mind 04:10
6. Redeemer 01:40
7. Submit (Subdued) 04:30
8. Surge 01:24
9. Zotheca 08:40
10. Thrall 04:26
11. Virosus - Amentia 03:07
******************************
Total playing time: 44:27

Preview 1

Extended info
Info from the label (Omnipresence):
In 2006 Mortiis recorded a whole album´s worth of material for an underground horror movie. The majority of the music was never used, and none of it has ever been released in album format, until now. We have pressed a total of 250 LPs, in 5 different vinyl colors. The first 50, on red marbled vinyl, and numbered in Mortiis´ own blood!


Technical info
(IMG:http://metalarea.org/images/spectrogram/2017_Dec/d0ec87e28611f535518f3911d6437ec0.png)
Input File: 02 - Hollowed.mp3
Channels : 2
Sample Rate : 44100
Precision : 16-bit
Duration : 00:03:50.14 = 10149262 samples = 17260.6 CDDA sectors
File Size : 5.52M
Bit Rate : 192k
Sample Encoding: MPEG audio (layer I, II or III)
Comments :
Title=Hollowed
Artist=Mortiis
Album=The Unraveling Mind
Tracknumber=2
Year=2017
Genre=Dark Ambient/Electronic/Tribal



Register


Go to the top of the page
  Insert nick Quick quote
+Quote Post
 
Start new topic
Replies (1 - 9)
post Dec 24 2017, 12:15:35
Post #2

Forever Underground
**************
Group: Металариец
Posts: 5,082
Releases: 0
On Forums: 3 years 7 months
Thanks: 4646 time(s)
Unknown


(IMG:style_emoticons/default/17.gif) Thanks a lot!!! HAIL MORTIIS (IMG:style_emoticons/default/25.gif)


Thanks:
(1) Panacea,
Go to the top of the page
  Insert nick Quick quote
+Quote Post
post Dec 24 2017, 12:29:37
Post #3

Девять Литров
*********
Group: Металариец
Posts: 986
Releases: 37
From: великий город Питер
On Forums: 12 years 11 months
Thanks: 1800 time(s)
Russian Federation


на рутрекере есть 320 и FLAC
Go to the top of the page
  Insert nick Quick quote
+Quote Post
post Dec 24 2017, 12:57:23
Post #4

Наливай!
**************
Group: Металариец
Posts: 5,135
Releases: 27
From: Москва-Бибирево
On Forums: 10 years 8 months
Thanks: 2419 time(s)
Russian Federation


Чо, как всегда, брюзжит-дребезжит?)).
Go to the top of the page
  Insert nick Quick quote
+Quote Post
post Dec 24 2017, 13:13:15
Post #5

𝕻𝕬𝕹𝕬𝕮𝕰𝕬
******
Group: Металариец
Posts: 600
Releases: 339
On Forums: 6 years 5 months
Thanks: 4725 time(s)
Unknown


This one should be 320 kbps:
Register

I tried to added as a new/replacement post but i got a "This release is already here in similar quality." message.


Go to the top of the page
  Insert nick Quick quote
+Quote Post
post Dec 24 2017, 13:46:48
Post #6

Правь статус, ####!111
**************
Group: Металариец
Posts: 34,737
Releases: 504
On Forums: 9 years 5 months
Thanks: 26761 time(s)
Russian Federation


Альбом 2001 года у тролля просто шикарен.


Thanks:
(2) DMIYUR, gena,
Go to the top of the page
  Insert nick Quick quote
+Quote Post
post Dec 24 2017, 14:58:41
Post #7

Правь статус, ####!111
**************
Group: Металариец
Posts: 34,737
Releases: 504
On Forums: 9 years 5 months
Thanks: 26761 time(s)
Russian Federation


@320

Register


FLAC

Register


Go to the top of the page
  Insert nick Quick quote
+Quote Post
post Dec 25 2017, 15:05:40
Post #8

Три Литра
***
Group: Завсегдатай
Posts: 254
Releases: 1
On Forums: 9 years 2 weeks
Thanks: 78 time(s)
Russian Federation


Не плохой саундтрек получился бы к фильму/игре
Go to the top of the page
  Insert nick Quick quote
+Quote Post
post Dec 26 2017, 19:36:38
Post #9

Два Литра
**
Group: Завсегдатай
Posts: 156
Releases: 0
From: Kiev
On Forums: 9 years 10 months
Thanks: 37 time(s)
Ukraine


Шо за крякозябр на облоге ? (IMG:style_emoticons/default/17.gif)
Go to the top of the page
  Insert nick Quick quote
+Quote Post
post Feb 26 2018, 09:07:35
Post #10

Самый Тихий Час
**************
Group: Металариец
Posts: 5,614
Releases: 0
On Forums: 9 years 1 week
Thanks: 2451 time(s)
Unknown


В целом:
ЦИТАТА(SAPOGi @ 24th December 2017 - 14:57:23) *
брюзжит-дребезжит

местами интересно, но всё так же сумбурно.
Go to the top of the page
  Insert nick Quick quote
+Quote Post

Reply to this topicStart new topic
1 User(s) are reading this topic (1 Guests and 0 Anonymous Users)
0 Members:

 



- Lo-Fi Version Support form
Copyrights and abuse reports form
Time is now: 21st November 2018 - 21:13:13