Welcome Guest ( Log In | Register )

> Vénen - V​.​1. [demo] (2017), Black/Doom Metal
post Dec 24 2017, 12:55:59
Post #1

Мастер волшебного кнута
**************
Group: Металариец
Posts: 3,784
Releases: 3508
From: Кронштадт, Санкт-Петербург
On Forums: 10 years 8 months
Thanks: 20760 time(s)
Russian Federation


(IMG:https://metalarea.org/images/audiocovers/2017_Dec/acov_tid299657_thumb.jpg)

*Artist: Vénen
*Album: V​.​1. [demo]
*Year: 2017
*Genre: Black/Doom Metal
*Country: Hungary (IMG:https://metalarea.org/forum/style_images/flags/Hungary.png)
*Format: mp3@CBR320kbps
*Size: 53MB

Tracklist:
01. Szikes (Saline) 06:43
02. Az Utolsó Ér (The Last Fountain) 07:04
03. Az Elmúlás Világa (The World Of Passing) 09:27
******************************
Total playing time: 23:14




Technical info
(IMG:https://metalarea.org/images/spectrogram/2017_Dec/5f29821e0a5985b81dcbae81481e073b.png)
Input File: 01 Szikes (Saline).mp3
Channels : 2
Sample Rate : 44100
Precision : 16-bit
Duration : 00:06:43.11 = 17777019 samples = 30233 CDDA sectors
File Size : 16.2M
Bit Rate : 321k
Sample Encoding: MPEG audio (layer I, II or III)
Comments :
Title=Szikes (Saline)
Artist=VГ©nen
Album=V.1. (Demo)
Tracknumber=1
Year=2017
Genre=Black/Doom Metal



Register


Go to the top of the page
  Insert nick Quick quote
+Quote Post
 
Start new topic
Replies (1 - 1)
post Jul 12 2018, 19:10:42
Post #2

добрый мизантроп
**********
Group: Металариец
Posts: 1,255
Releases: 0
From: Минск
On Forums: 7 years 8 months
Thanks: 382 time(s)
Madagascar


7/10 Норм
Go to the top of the page
  Insert nick Quick quote
+Quote Post

Reply to this topicStart new topic
2 User(s) are reading this topic (2 Guests and 0 Anonymous Users)
0 Members:

 



- Lo-Fi Version Support form
Copyrights and abuse reports form
Time is now: 17th July 2018 - 18:15:13