Welcome Guest ( Log In | Register )

> И неформату есть предел.

Рэп/хип-хоп/шансон/поп удаляются. Для них есть свои порталы.

 
Reply to this topicStart new topic
> Orestea - Elements (2017), Alternative Metal (D4)
post Dec 24 2017, 15:42:43
Post #1

Добрый десептикон
******
Group: Металариец
Posts: 505
Releases: 386
On Forums: 10 years 9 months
Thanks: 3999 time(s)
Russian Federation


(IMG:http://metalarea.org/images/audiocovers/2017_Dec/acov_tid299673_thumb.jpg)

*Artist: Orestea
*Album: Elements
*Year: 2017
*Genre: Alternative Metal
*Country: United Kingdom (IMG:http://metalarea.org/forum/style_images/flags/United%20Kingdom.png)
*Format: mp3@CBR320kbps
*Size: 90MB

Tracklist:
1. Welcome to Surviville
2. Here's The Plan
3. Elements
4. Ghost of Letting Go
5. Alive or Just Existing
6. Getaway
7. Eggshells
8. The Wreckage
9. Got Your Back
10. Burning Bridges
******************************
Total playing time: 39:32




Technical info
(IMG:http://metalarea.org/images/spectrogram/2017_Dec/6c97c84424a3c6a3690b234d0b84b6a4.png)
Input File: 01 - Welcome to Surviville.mp3
Channels : 2
Sample Rate : 44100
Precision : 16-bit
Duration : 00:04:01.77 = 10661881 samples = 18132.5 CDDA sectors
File Size : 9.76M
Bit Rate : 323k
Sample Encoding: MPEG audio (layer I, II or III)
Comments :
Title=Welcome to Surviville
Artist=Orestea
Album=Elements
Tracknumber=1/10
Year=2017
Genre=пїђпї®пїЄ
Discnumber=1/1



Register


Thanks:
Go to the top of the page
  Insert nick Quick quote
+Quote Post

Reply to this topicStart new topic
1 User(s) are reading this topic (1 Guests and 0 Anonymous Users)
0 Members:

 



- Lo-Fi Version Support form
Copyrights and abuse reports form
Time is now: 21st November 2018 - 21:31:19