Welcome Guest ( Log In | Register )

> И неформату есть предел.

Рэп/хип-хоп/шансон/поп удаляются. Для них есть свои порталы.

 
ОтветитьСоздать новую тему
> Hesychia - Metanoia (2017), Drone Ambient
post Dec 26 2017, 16:18:28
Post #1

As Above, so Below
***********
Group: Металариец
Posts: 1,853
Releases: 17
On Forums: 8 years 2 months
Thanks: 3625 time(s)
Russian Federation


(IMG:http://metalarea.org/images/audiocovers/2017_Dec/acov_tid299738_thumb.jpg)

*Artist: Hesychia
*Album: Metanoia
*Year: 2017
*Genre: Drone Ambient
*Country: Austria (IMG:http://metalarea.org/forum/style_images/flags/Austria.png)
*Format: mp3@CBR320kbps
*Size: 85MB

Tracklist:
1. Apatheia 10:26
2. Metanoia 03:00
3. Nepsis 09:16
4. Maranatha 10:54
5. Revelation 21;5 06:12
******************************
Total playing time: 39:48



Extended info
New project by Austrian Arthur Rosar (former member of Abigor). The album is a meditation on freedom from all passions (apatheia) and repentance (metanoia) through fundamental concepts established by early christian mysticism (the desert fathers) with respect to zen buddhism and pre-christian European traditions. An aural guide to force the removal of all illusions and be in total awareness of the eternal now, forging a stillness of the soul, going beyond the mundane. The music is a savvy achievement of total surrender through improvised analog atmospherics and field recordings.
2017. Cyclic Law


Technical info
(IMG:http://metalarea.org/images/spectrogram/2017_Dec/27853be1e4442e4f48ca7202d788ea29.png)
Input File: 01 - Apatheia.mp3
Channels : 2
Sample Rate : 44100
Precision : 16-bit
Duration : 00:10:26.14 = 27612862 samples = 46960.6 CDDA sectors
File Size : 25.2M
Bit Rate : 322k
Sample Encoding: MPEG audio (layer I, II or III)
Comments :
Title=Apatheia
Artist=Hesychia
Album=Metanoia
Tracknumber=01/05
Year=2017
Genre=Drone Ambient



Register


Вернуться к началу страницы
  Insert nick Quick quote
+Цитировать сообщение

ОтветитьСоздать новую тему
1 User(s) are reading this topic (1 Guests and 0 Anonymous Users)
0 Members:

 



- Lo-Fi Version Support form
Copyrights and abuse reports form
Time is now: 19th February 2018 - 08:51:20