Welcome Guest ( Log In | Register )

> И неформату есть предел.

Рэп/хип-хоп/шансон/поп удаляются. Для них есть свои порталы.

 
Reply to this topicStart new topic
> Danheim - Munarvagr (2017), Folk/Dark Ambient
post Dec 26 2017, 19:57:58
Post #1

напряжный чувак (с)
***********
Group: Металариец
Posts: 1,937
Releases: 24
From: Киев
On Forums: 11 years 9 months
Thanks: 2536 time(s)
Ukraine


(IMG:https://metalarea.org/images/audiocovers/2017_Dec/acov_tid299745_thumb.jpg)

*Artist: Danheim
*Album: Munarvagr
*Year: 2017
*Genre: Folk/Dark Ambient
*Country: Denmark (IMG:https://metalarea.org/forum/style_images/flags/Denmark.png)
*Format: mp3@CBR320kbps
*Size: 78MB

Tracklist:
1. Intro
2. Vindöld
3. Tyrfing
4. Tyr
5. Temple Of Odin
6. Myrkviðr
7. Munarvágr
8. Jörmungandr
9. Ivar's Revenge
10. Gjallarhorn
11. Floki's Last Journey
12. Call To The Gods (Outro)
******************************
Total playing time: 37:47



Technical info
(IMG:https://metalarea.org/images/spectrogram/2017_Dec/ad6b5b2f82c08782489f2dffbd1d9508.png)
Input File: 02 - Vindold.mp3
Channels : 2
Sample Rate : 44100
Precision : 16-bit
Duration : 00:03:27.69 = 9159217 samples = 15576.9 CDDA sectors
File Size : 8.40M
Bit Rate : 324k
Sample Encoding: MPEG audio (layer I, II or III)
Comments :
Title=Vindöld
Artist=Danheim
Album=Munarvagr
Tracknumber=02
Year=2017
Genre=Folk/Ambient
Discnumber=1/1



Register


Thanks:
Go to the top of the page
  Insert nick Quick quote
+Quote Post

Reply to this topicStart new topic
1 User(s) are reading this topic (1 Guests and 0 Anonymous Users)
0 Members:

 



- Lo-Fi Version Support form
Copyrights and abuse reports form
Time is now: 21st November 2018 - 13:10:24