Welcome Guest ( Log In | Register )

> И неформату есть предел.

Рэп/хип-хоп/шансон/поп удаляются. Для них есть свои порталы.

 
ОтветитьСоздать новую тему
> Danheim - Mannavegr (2017), Folk/Ambient
post Dec 26 2017, 20:03:31
Post #1

напряжный чувак (с)
***********
Group: Металариец
Posts: 1,773
Releases: 21
From: Киев
On Forums: 11 years 3 months
Thanks: 2296 time(s)
Ukraine


(IMG:https://metalarea.org/images/audiocovers/2017_Dec/acov_tid299746_thumb.jpg)

*Artist: Danheim
*Album: Mannavegr
*Year: 2017
*Genre: Folk/Ambient
*Country: Denmark (IMG:https://metalarea.org/forum/style_images/flags/Denmark.png)
*Format: mp3@CBR320kbps
*Size: 122MB

Tracklist:
01. Gripir 3:44
02. Heljarfцr 4:11
03. Nуatъn 3:44
04. Vali 3:41
05. Glundroрi (feat. Sigurboрi Grйtarsson) 4:58
06. Fensalir 4:24
07. War of the North 4:34
08. Vanheimr 4:00
09. Holmgang 3:14
10. Folkvangr 4:00
11. Нmar 3:03
12. Ivar's Wrath 3:48
13. Gripir (Vocal Version) (feat. Sigurboрi Grйtarsson) 3:48
14. Heljarfцr (Vocal Version) (feat. Sigurboрi Grйtarsson) 4:20
15. Mannavegr 3:14
******************************
Total playing time: 58:53



Technical info
(IMG:https://metalarea.org/images/spectrogram/2017_Dec/29732da29535d236b3a5642ac37f7ea8.png)
Input File: 02 - Heljarfor.mp3
Channels : 2
Sample Rate : 44100
Precision : 16-bit
Duration : 00:04:11.63 = 11097059 samples = 18872.5 CDDA sectors
File Size : 10.2M
Bit Rate : 323k
Sample Encoding: MPEG audio (layer I, II or III)
Comments :
Title=Heljarför
Artist=Danheim
Album=Mannavegr
Tracknumber=02
Year=2017
Genre=Folk/Ambient
Discnumber=1/1



Register


Thanks:
(1) Kaswarh,
Вернуться к началу страницы
  Insert nick Quick quote
+Цитировать сообщение

ОтветитьСоздать новую тему
2 User(s) are reading this topic (2 Guests and 0 Anonymous Users)
0 Members:

 



- Lo-Fi Version Support form
Copyrights and abuse reports form
Time is now: 24th May 2018 - 14:20:31