Welcome Guest ( Log In | Register )

> И неформату есть предел.

Рэп/хип-хоп/шансон/поп удаляются. Для них есть свои порталы.

> Kaunan - Forn (2017), Folk
post Dec 26 2017, 20:15:41
Post #1

напряжный чувак (с)
***********
Group: Металариец
Posts: 1,775
Releases: 21
From: Киев
On Forums: 11 years 3 months
Thanks: 2296 time(s)
Ukraine


(IMG:https://metalarea.org/images/audiocovers/2017_Dec/acov_tid299747_thumb.jpg)

*Artist: Kaunan
*Album: Forn
*Year: 2017
*Genre: Folk
*Country: Germany (IMG:https://metalarea.org/forum/style_images/flags/Germany.png)
*Format: mp3@CBR320kbps
*Size: 104MB

Tracklist:
01. Halteguten 04:36
02. Polska Svit 03:47
03. Elve Fert 05:28
04. Vandringen 04:53
05. Svärdsjö Polska 03:42
06. Vallåt (feat. Einar Selvik (Wardruna) and Maria Franz (Heilung and Songleikr)) 04:12
07. Noaks Pennkniv 04:46
08. Byss Kalles Vals 04:29
09. Den Gamle Sordølen 02:21
10. Polska Från Älvdal 04:14
11. Dansen Ungdom 03:36
******************************
Total playing time: 46:04



Technical info
(IMG:https://metalarea.org/images/spectrogram/2017_Dec/cf4f03faa0b3dba101fe70e2bcad8e8e.png)
Input File: 02 - Polska Svit.mp3
Channels : 2
Sample Rate : 44100
Precision : 16-bit
Duration : 00:03:47.92 = 10051316 samples = 17094.1 CDDA sectors
File Size : 9.13M
Bit Rate : 320k
Sample Encoding: MPEG audio (layer I, II or III)
Comments :
Title=Polska Svit
Artist=Kaunan
Album=Forn
Tracknumber=02
Year=2017
Genre=Folk



Register


Вернуться к началу страницы
  Insert nick Quick quote
+Цитировать сообщение
 
Создать новую тему
Replies (1 - 4)
post Dec 29 2017, 10:50:13
Post #2

Семь Литров
*******
Group: Металариец
Posts: 774
Releases: 0
From: Харьков
On Forums: 10 years 2 months
Thanks: 555 time(s)
Ukraine


Долго втыкал в название группы... Увы, не *Kauan*, и в Германию он не переехал


Thanks:
(1) ShmiT,
Вернуться к началу страницы
  Insert nick Quick quote
+Цитировать сообщение
post Dec 29 2017, 12:08:05
Post #3

напряжный чувак (с)
***********
Group: Металариец
Posts: 1,775
Releases: 21
From: Киев
On Forums: 11 years 3 months
Thanks: 2296 time(s)
Ukraine


Ну это не какие-то очередные ноунеймы. Проект лидера немецких Faun (которые увы не Fauna (IMG:style_emoticons/default/1488.gif) ).
Вернуться к началу страницы
  Insert nick Quick quote
+Цитировать сообщение
post Dec 31 2017, 14:13:10
Post #4

Мегаманьяк
***********
Group: Металариец
Posts: 1,914
Releases: 6
From: Kyiv
On Forums: 10 years 6 months
Thanks: 251 time(s)
Ukraine


бомбезно!!!
Вернуться к началу страницы
  Insert nick Quick quote
+Цитировать сообщение
post Apr 5 2018, 13:42:21
Post #5

Два Литра
**
Group: Завсегдатай
Posts: 155
Releases: 0
From: Чуркестан
On Forums: 10 years 8 months
Thanks: 13 time(s)
Uzbekistan


По звук - фолк 70х, удивительно услышать такое, сильное, сдержанное, сейчас.
Вернуться к началу страницы
  Insert nick Quick quote
+Цитировать сообщение

ОтветитьСоздать новую тему
1 User(s) are reading this topic (1 Guests and 0 Anonymous Users)
0 Members:

 



- Lo-Fi Version Support form
Copyrights and abuse reports form
Time is now: 25th May 2018 - 05:49:21