Welcome Guest ( Log In | Register )

> И неформату есть предел.

Рэп/хип-хоп/шансон/поп удаляются. Для них есть свои порталы.

 
ОтветитьСоздать новую тему
> Gjallarhorn - Ranarop (1997), Folk (D)
post Dec 26 2017, 20:24:46
Post #1

напряжный чувак (с)
***********
Group: Металариец
Posts: 1,775
Releases: 21
From: Киев
On Forums: 11 years 3 months
Thanks: 2296 time(s)
Ukraine


(IMG:https://metalarea.org/images/audiocovers/2017_Dec/acov_tid299748_thumb.jpg)

*Artist: Gjallarhorn
*Album: Ranarop
*Year: 1997
*Genre: Folk
*Country: Finland (IMG:https://metalarea.org/forum/style_images/flags/Finland.png)
*Format: mp3@CBR320kbps
*Size: 140MB

Tracklist:
1. Intro
2. Konungen och trollkvinnan
3. Herr Olof (Master Olof)
4. I fjol sе (Last year)
5. Solbцn-Еskan (Prayer for sun-T)
6. O-vals (Non-Waltz)
7. I riden sе... (Ye ride so care)
8. Sjцjungfrun och konungadottern (The mermaid and the princess)
9. Folkesongen (Folk song)
10. Elviras vals-Oravais menuett (Elvira's waltz-Oravais minuet)
11. Eldgjald (Galder song)
12. Ramunder
13. Kulning (Calling)
14. Reindeer Dreaming (Bonus track)
******************************
Total playing time: 1:02:39

(IMG:https://metalarea.org/images/youtube.png)

Technical info
(IMG:https://metalarea.org/images/spectrogram/2017_Dec/07e2cfdbc7f1dcf9640d8e79c3ea0e5c.png)
Input File: 02 - Konungen och trollkvinnan.mp3
Channels : 2
Sample Rate : 44100
Precision : 16-bit
Duration : 00:05:20.26 = 14123598 samples = 24019.7 CDDA sectors
File Size : 12.8M
Bit Rate : 320k
Sample Encoding: MPEG audio (layer I, II or III)
Comments :
Title=Konungen och trollkvinnan
Artist=Gjallarhorn
Album=Ranarop
Tracknumber=02
Year=1997
Genre=Folk



Register


Thanks:
Вернуться к началу страницы
  Insert nick Quick quote
+Цитировать сообщение

ОтветитьСоздать новую тему
1 User(s) are reading this topic (1 Guests and 0 Anonymous Users)
0 Members:

 



- Lo-Fi Version Support form
Copyrights and abuse reports form
Time is now: 25th May 2018 - 05:50:53