Welcome Guest ( Log In | Register )

> И неформату есть предел.

Рэп/хип-хоп/шансон/поп удаляются. Для них есть свои порталы.

 
ОтветитьСоздать новую тему
> Melancholie - Nachtelijke Hemellichamen [ep] (2017), Ambient/Acoustic
post Dec 27 2017, 17:48:48
Post #1

Angel Eviscerator
**************
Group: Металариец
Posts: 4,005
Releases: 2682
From: 55°35’N 38°08’E
On Forums: 9 years 7 months
Thanks: 51332 time(s)
Russian Federation


(IMG:http://metalarea.org/images/audiocovers/2017_Dec/acov_tid299785_thumb.jpg)

*Artist: Melancholie
*Album: Nachtelijke Hemellichamen [ep]
*Year: 2017
*Genre: Ambient/Acoustic
*Country: Netherlands (IMG:http://metalarea.org/forum/style_images/flags/Netherlands.png)
*Format: mp3@CBR320kbps
*Size: 45MB

Tracklist:
1.Nachtelijke Hemellichamen 05:32
2.Het Licht van de Sterren 05:39
3.Echoes of Transcendence (Lustre cover) 06:29
******************************
Total playing time: 17:40




Technical info
(IMG:http://metalarea.org/images/spectrogram/2017_Dec/433f0d619fa9f32337dd061a0eb51501.png)
Input File: 01 Nachtelijke Hemellichamen.mp3
Channels : 2
Sample Rate : 44100
Precision : 16-bit
Duration : 00:05:32.76 = 14674496 samples = 24956.6 CDDA sectors
File Size : 13.4M
Bit Rate : 321k
Sample Encoding: MPEG audio (layer I, II or III)
Comments :
Title=Nachtelijke Hemellichamen
Artist=Melancholie
Album=Nachtelijke Hemellichamen
Tracknumber=1
Year=2017
Genre=Acoustic



Register


Thanks:
(1) ZA670,
Вернуться к началу страницы
  Insert nick Quick quote
+Цитировать сообщение

ОтветитьСоздать новую тему
1 User(s) are reading this topic (1 Guests and 0 Anonymous Users)
0 Members:

 



- Lo-Fi Version Support form
Copyrights and abuse reports form
Time is now: 19th February 2018 - 15:04:28