Welcome Guest ( Log In | Register )

> Ramchat - Nepočaria (2017), Pagan Black/Death Metal (D4)
post Dec 28 2017, 11:10:00
Post #1

Аннигилятор пивА
Group Icon
Group: V.I.P
Posts: 52,360
Releases: 16555
From: Koenigsberg - TILZIT
On Forums: 13 years 6 months
Thanks: 363291 time(s)
Russian Federation


(IMG:https://metalarea.org/images/audiocovers/2017_Dec/acov_tid299800_thumb.jpg)

*Artist: Ramchat
*Album: Nepočaria
*Year: 2017
*Genre: Pagan Black/Death Metal
*Country: Slovakia (IMG:https://metalarea.org/forum/style_images/flags/Slovakia.png)
*Format: mp3@CBR320kbps
*Size: 108MB

Tracklist:
01. Tak Si Spomeň
02. Za Úsvitu...
03. SiloSlabosť
04. Vysloboď!
05. Nav
06. Už Nebudeme Otroci
07. Veles
08. KrajoZem
09. Nepočaria!
10. Postoj Chvílu (Iarislav Cover)
******************************
Total playing time: 46:30



Extended info
Pavel Hirax Baričák - gitara, Víťo Kotrík - gitara, Richard Pokorný - basgitara, Mišo Goldberger - bicie, Maťo Walki - spev


Technical info
(IMG:https://metalarea.org/images/spectrogram/2017_Dec/7003d8c54eff93f0735a740a10bf237e.png)
Input File: 03 - SiloSlabosť.mp3
Channels : 2
Sample Rate : 44100
Precision : 16-bit
Duration : 00:04:41.00 = 12392188 samples = 21075.1 CDDA sectors
File Size : 11.3M
Bit Rate : 322k
Sample Encoding: MPEG audio (layer I, II or III)
Comments :
Title=SiloSlabosЕҐ
Artist=Ramchat
Album=NepoДЌaria
Tracknumber=3
Year=2017
Genre=Black/Pagan Metal



Register


Go to the top of the page
  Insert nick Quick quote
+Quote Post
 
Start new topic
Replies (1 - 4)
post Dec 28 2017, 13:18:20
Post #2

Аннигилятор пивА
Group Icon
Group: V.I.P
Posts: 52,360
Releases: 16555
From: Koenigsberg - TILZIT
On Forums: 13 years 6 months
Thanks: 363291 time(s)
Russian Federation


MIRROR
Register


Go to the top of the page
  Insert nick Quick quote
+Quote Post
post May 5 2018, 11:27:47
Post #3

FOLK METAL FEVER
**************
Group: Металариец
Posts: 2,029
Releases: 6
From: Kyiv
On Forums: 12 years 1 month
Thanks: 267 time(s)
Ukraine


Последний трек-кавер хорош! А в целом мало фолька.
Go to the top of the page
  Insert nick Quick quote
+Quote Post
post Dec 3 2019, 16:18:00
Post #4

Три Литра
***
Group: Завсегдатай
Posts: 270
Releases: 0
From: Moscow
On Forums: 11 years 10 months
Thanks: 18 time(s)
Russian Federation


Reupload please
Go to the top of the page
  Insert nick Quick quote
+Quote Post
post Dec 3 2019, 18:50:15
Post #5

Два Литра
**
Group: Завсегдатай
Posts: 135
Releases: 0
On Forums: 11 years 5 months
Thanks: 196 time(s)
Russian Federation


cbr 320

Register


Thanks:
(1) Amadeus,
Go to the top of the page
  Insert nick Quick quote
+Quote Post

Reply to this topicStart new topic
1 User(s) are reading this topic (1 Guests and 0 Anonymous Users)
0 Members:

 



- Lo-Fi Version Support form
Copyrights and abuse reports form
Time is now: 12th December 2019 - 14:25:11