Welcome Guest ( Log In | Register )

> И неформату есть предел.

Рэп/хип-хоп/шансон/поп удаляются. Для них есть свои порталы.

 
Reply to this topicStart new topic
> Himmelsrandt - R A I N [demo] (2015), Neoclassical
post Dec 29 2017, 02:37:55
Post #1

Правь статус, ####!616
**************
Group: Металариец
Posts: 4,423
Releases: 3017
From: 55°35’N 38°08’E
On Forums: 10 years 4 months
Thanks: 56896 time(s)
Unknown


(IMG:http://metalarea.org/images/audiocovers/2017_Dec/acov_tid299838_thumb.jpg)

*Artist: Himmelsrandt
*Album: R A I N [demo]
*Year: 2015
*Genre: Neoclassical
*Country: Germany (IMG:http://metalarea.org/forum/style_images/flags/Germany.png)
*Format: mp3@CBR320kbps
*Size: 34MB

Tracklist:
1.Clouds I 03:15
2.Drops 04:33
3.Rain 03:52
4.Clouds II 02:45
******************************
Total playing time: 14:25




Extended info
Side project by P.H.(Nachtreich)


Technical info
(IMG:http://metalarea.org/images/spectrogram/2017_Dec/dc0462355be0f53102c7df4144850ceb.png)
Input File: 01 Clouds I.mp3
Channels : 2
Sample Rate : 44100
Precision : 16-bit
Duration : 00:03:15.50 = 8621330 samples = 14662.1 CDDA sectors
File Size : 7.96M
Bit Rate : 326k
Sample Encoding: MPEG audio (layer I, II or III)
Comments :
Title=Clouds I
Artist=Himmelsrandt
Album=R A I N (Demo)
Tracknumber=1
Year=2015
Genre=Other



Register


Thanks:
Go to the top of the page
  Insert nick Quick quote
+Quote Post

Reply to this topicStart new topic
1 User(s) are reading this topic (1 Guests and 0 Anonymous Users)
0 Members:

 



- Lo-Fi Version Support form
Copyrights and abuse reports form
Time is now: 21st November 2018 - 20:51:04