Welcome Guest ( Log In | Register )

> И неформату есть предел.

Рэп/хип-хоп/шансон/поп удаляются. Для них есть свои порталы.

> Nachtreich - Beobachtungen Über Dem Horizont [ep] (2016), Neoclassical (D7)
post Dec 29 2017, 02:47:00
Post #1

Правь статус, ####!616
**************
Group: Металариец
Posts: 4,339
Releases: 2950
From: 55°35’N 38°08’E
On Forums: 9 years 10 months
Thanks: 54997 time(s)
Unknown


(IMG:http://metalarea.org/images/audiocovers/2017_Dec/acov_tid299839_thumb.jpg)

*Artist: Nachtreich
*Album: Beobachtungen Über Dem Horizont [ep]
*Year: 2016
*Genre: Neoclassical
*Country: Germany (IMG:http://metalarea.org/forum/style_images/flags/Germany.png)
*Format: mp3@CBR320kbps
*Size: 42MB

Tracklist:
1.Beobachtungen über dem Horizont 17:59
******************************
Total playing time: 17:59




Technical info
(IMG:http://metalarea.org/images/spectrogram/2017_Dec/c7bee36e19cecda76e96906ebb49152d.png)
Input File: 01 Beobachtungen ?ber dem Horizont.mp3
Channels : 2
Sample Rate : 44100
Precision : 16-bit
Duration : 00:18:01.44 = 47691372 samples = 81107.8 CDDA sectors
File Size : 43.3M
Bit Rate : 320k
Sample Encoding: MPEG audio (layer I, II or III)
Comments :
Title=Beobachtungen uber dem Horizon
Artist=Nachtreich
Album=Beobachtungen Гјber dem Horizont
Tracknumber=1
Year=2016
Genre=Other



Register


Вернуться к началу страницы
  Insert nick Quick quote
+Цитировать сообщение
 
Создать новую тему
Replies (1 - 1)
post Mar 15 2018, 04:14:50
Post #2

Два Литра
**
Group: Завсегдатай
Posts: 155
Releases: 0
From: Чуркестан
On Forums: 10 years 8 months
Thanks: 13 time(s)
Uzbekistan


Дякую! Наконец-то приличный - концептуальный, нештампованный, Ambient!
Вернуться к началу страницы
  Insert nick Quick quote
+Цитировать сообщение

ОтветитьСоздать новую тему
1 User(s) are reading this topic (1 Guests and 0 Anonymous Users)
0 Members:

 



- Lo-Fi Version Support form
Copyrights and abuse reports form
Time is now: 25th May 2018 - 05:54:57