Welcome Guest ( Log In | Register )

> И неформату есть предел.

Рэп/хип-хоп/шансон/поп удаляются. Для них есть свои порталы.

 
ОтветитьСоздать новую тему
> Himmelsrandt - Schneeland (2016), Neoclassical
post Dec 29 2017, 02:58:36
Post #1

Angel Eviscerator
**************
Group: Металариец
Posts: 4,005
Releases: 2682
From: 55°35’N 38°08’E
On Forums: 9 years 7 months
Thanks: 51332 time(s)
Russian Federation


(IMG:http://metalarea.org/images/audiocovers/2017_Dec/acov_tid299840_thumb.jpg)

*Artist: Himmelsrandt
*Album: Schneeland
*Year: 2016
*Genre: Neoclassical
*Country: Germany (IMG:http://metalarea.org/forum/style_images/flags/Germany.png)
*Format: mp3@CBR320kbps
*Size: 99MB

Tracklist:
1.I 04:43
2.II 03:21
3.III 07:10
4.IV 04:27
5.V 03:41
6.VI 09:54
7.VII 02:36
8.VIII 07:16
******************************
Total playing time: 43:08




Extended info
Side project by P.H.(Nachtreich)


Technical info
(IMG:http://metalarea.org/images/spectrogram/2017_Dec/310ff753e70aa0196f7c88e445249202.png)
Input File: 01 I.mp3
Channels : 2
Sample Rate : 44100
Precision : 16-bit
Duration : 00:04:43.75 = 12513155 samples = 21280.9 CDDA sectors
File Size : 11.4M
Bit Rate : 322k
Sample Encoding: MPEG audio (layer I, II or III)
Comments :
Title=I
Artist=Himmelsrandt
Album=Schneeland
Tracknumber=1
Year=2016
Genre=Other



Register


Thanks:
(1) Woosad,
Вернуться к началу страницы
  Insert nick Quick quote
+Цитировать сообщение

ОтветитьСоздать новую тему
1 User(s) are reading this topic (1 Guests and 0 Anonymous Users)
0 Members:

 



- Lo-Fi Version Support form
Copyrights and abuse reports form
Time is now: 19th February 2018 - 08:51:38