Welcome Guest ( Log In | Register )

> И неформату есть предел.

Рэп/хип-хоп/шансон/поп удаляются. Для них есть свои порталы.

 
ОтветитьСоздать новую тему
> Watter - This World (2014), Psychedelic/Krautrock
post Dec 30 2017, 11:28:15
Post #1

ashes of yesterdays
**********
Group: Металариец
Posts: 1,039
Releases: 8
On Forums: 10 years 8 months
Thanks: 2566 time(s)
Unknown


(IMG:http://metalarea.org/images/audiocovers/2017_Dec/acov_tid299893_thumb.jpg)

*Artist: Watter
*Album: This World
*Year: 2014
*Genre: Psychedelic/Krautrock
*Country: United States (IMG:http://metalarea.org/forum/style_images/flags/United%20States.png)
*Format: mp3@CBR320kbps
*Size: 106MB

Tracklist:
1. Rustic Fog 07:02
2. Lord I Want More 02:14
3. Small Business 13:32
4. Bloody Monday 04:22
5. Seawater 12:50
6. This World 06:44
7. Digital Camo 06:21
******************************
Total playing time: 53:05



Extended info


Technical info
(IMG:http://metalarea.org/images/spectrogram/2017_Dec/9d86cd57526b5de747217460107e65dc.png)
Input File: 02 Lord I Want More.mp3
Channels : 2
Sample Rate : 44100
Precision : 16-bit
Duration : 00:02:14.83 = 5946135 samples = 10112.5 CDDA sectors
File Size : 5.42M
Bit Rate : 322k
Sample Encoding: MPEG audio (layer I, II or III)
Comments :
Title=Lord I Want More
Artist=Watter
Album=This World
Tracknumber=2
Year=2014



Register


Вернуться к началу страницы
  Insert nick Quick quote
+Цитировать сообщение

ОтветитьСоздать новую тему
1 User(s) are reading this topic (1 Guests and 0 Anonymous Users)
0 Members:

 



- Lo-Fi Version Support form
Copyrights and abuse reports form
Time is now: 19th February 2018 - 08:53:41