Welcome Guest ( Log In | Register )

 
Reply to this topicStart new topic
> Parricide - Infection [demo] (1995), Death Metal (D)
post Dec 31 2017, 06:33:51
Post #1

Подвал
**************
Group: Металариец
Posts: 12,698
Releases: 7116
From: Far East (Khabarovsk)
On Forums: 9 years 9 months
Thanks: 66160 time(s)
Russian Federation


(IMG:http://metalarea.org/images/audiocovers/2017_Dec/acov_tid299922_thumb.jpg)

*Artist: Parricide
*Album: Infection [demo]
*Year: 1995
*Genre: Death Metal
*Country: United Kingdom (IMG:http://metalarea.org/forum/style_images/flags/United%20Kingdom.png)
*Format: mp3@CBR192kbps
*Size: 36MB

Tracklist:
1. Infection 03:11
2. Termination 05:56
3. Decades Of Death 05:17
4. Curse The Cross 04:59
5. Mental Incarceration / Outro 07:20
******************************
Total playing time: 26:43

Extended info
Band from West Glamorgan, Wales.
Recorded at Sonic Studios, Kidwelly in March 1995.


Technical info
(IMG:http://metalarea.org/images/spectrogram/2017_Dec/c1d9a88a3cded55c0eda7d3d43651db6.png)
Input File: 01-Infection.mp3
Channels : 2
Sample Rate : 44100
Precision : 16-bit
Duration : 00:03:11.60 = 8449516 samples = 14369.9 CDDA sectors
File Size : 4.60M
Bit Rate : 192k
Sample Encoding: MPEG audio (layer I, II or III)
Comments :
Title=Infection
Artist=Parricide (UK)
Album=Infection (Demo)
Tracknumber=01
Year=1995
Genre=Death Metal



Register


Go to the top of the page
  Insert nick Quick quote
+Quote Post

Reply to this topicStart new topic
1 User(s) are reading this topic (1 Guests and 0 Anonymous Users)
0 Members:

 



- Lo-Fi Version Support form
Copyrights and abuse reports form
Time is now: 20th November 2018 - 16:18:05