Welcome Guest ( Log In | Register )

 
ОтветитьСоздать новую тему
> Avoid - Dehumanized Reality [ep] (1998), Melodic Thrash/Death Metal (D7)
post Dec 31 2017, 06:40:07
Post #1

Подвал
**************
Group: Металариец
Posts: 12,086
Releases: 6809
From: Far East (Khabarovsk)
On Forums: 9 years 3 months
Thanks: 62142 time(s)
Russian Federation


(IMG:http://metalarea.org/images/audiocovers/2017_Dec/acov_tid299923_thumb.jpg)

*Artist: Avoid
*Album: Dehumanized Reality [ep]
*Year: 1998
*Genre: Melodic Thrash/Death Metal
*Country: Germany (IMG:http://metalarea.org/forum/style_images/flags/Germany.png)
*Format: mp3@CBR192kbps
*Size: 27MB

Tracklist:
1. Beyond The Lies 03:37
2. Dehumanized Reality 03:29
3. Behind The Mask 04:45
4. Soul To Sell 03:32
5. More Than A Faith 04:17
******************************
Total playing time: 19:40

Technical info
(IMG:http://metalarea.org/images/spectrogram/2017_Dec/9370260df81192497343c21bce72136b.png)
Input File: 01-Beyond the Lies.mp3
Channels : 2
Sample Rate : 44100
Precision : 16-bit
Duration : 00:03:37.17 = 9577373 samples = 16288 CDDA sectors
File Size : 5.21M
Bit Rate : 192k
Sample Encoding: MPEG audio (layer I, II or III)
Comments :
Title=Beyond the Lies
Artist=Avoid (Ger)
Album=Dehumanized Reality (EP)
Tracknumber=01
Year=1998
Genre=Metal



Register


Вернуться к началу страницы
  Insert nick Quick quote
+Цитировать сообщение

ОтветитьСоздать новую тему
2 User(s) are reading this topic (2 Guests and 0 Anonymous Users)
0 Members:

 



- Lo-Fi Version Support form
Copyrights and abuse reports form
Time is now: 22nd May 2018 - 20:31:44