Welcome Guest ( Log In | Register )

 
Reply to this topicStart new topic
> Metrix - Metrix [demo] (2008), Thrash Metal
post Dec 31 2017, 07:48:22
Post #1

Подвал
**************
Group: Металариец
Posts: 12,301
Releases: 6935
From: Far East (Khabarovsk)
On Forums: 9 years 6 months
Thanks: 63468 time(s)
Russian Federation


(IMG:http://metalarea.org/images/audiocovers/2017_Dec/acov_tid299925_thumb.jpg)

*Artist: Metrix
*Album: Metrix [demo]
*Year: 2008
*Genre: Thrash Metal
*Country: United States (IMG:http://metalarea.org/forum/style_images/flags/United%20States.png)
*Format: mp3@CBR192kbps
*Size: 44MB

Tracklist:
1. What We Call Revenge 04:27
2. Amnesia 04:07
3. Full Moon Rising 04:27
4. Unprovoked Violence 03:02
5. Rules Of Engagement 03:39
6. Full Metal Straitjacket 04:57
7. One Final Conflict 03:18
8. State of Chaos 04:48
******************************
Total playing time: 32:45



Extended info
Band from Lancaster, Pennsylvania.


Technical info
(IMG:http://metalarea.org/images/spectrogram/2017_Dec/e81d9cca6c19e2cad787fd0bb0bb6cfa.png)
Input File: 01-What We Call Revenge.mp3
Channels : 2
Sample Rate : 44100
Precision : 16-bit
Duration : 00:04:28.06 = 11821622 samples = 20104.8 CDDA sectors
File Size : 6.43M
Bit Rate : 192k
Sample Encoding: MPEG audio (layer I, II or III)
Comments :
Title=What We Call Revenge
Artist=Metrix (US, PA)
Album=Metrix Demo
Tracknumber=01
Year=2008
Genre=Thrash Metal



Register


Go to the top of the page
  Insert nick Quick quote
+Quote Post

Reply to this topicStart new topic
1 User(s) are reading this topic (1 Guests and 0 Anonymous Users)
0 Members:

 



- Lo-Fi Version Support form
Copyrights and abuse reports form
Time is now: 16th August 2018 - 23:20:44