Welcome Guest ( Log In | Register )

 
ОтветитьСоздать новую тему
> Karne De Zerdo - Violencia Gorrina (1994), Death/Thrash Metal/Hardcore
post Dec 31 2017, 08:50:45
Post #1

Подвал
**************
Group: Металариец
Posts: 12,086
Releases: 6809
From: Far East (Khabarovsk)
On Forums: 9 years 3 months
Thanks: 62142 time(s)
Russian Federation


(IMG:http://metalarea.org/images/audiocovers/2017_Dec/acov_tid299931_thumb.jpg)

*Artist: Karne De Zerdo
*Album: Violencia Gorrina
*Year: 1994
*Genre: Death/Thrash Metal/Hardcore
*Country: Spain (IMG:http://metalarea.org/forum/style_images/flags/Spain.png)
*Format: mp3@CBR192kbps
*Size: 73MB

Tracklist:
1. Especie Superior 04:54
2. Tabús 06:00
3. Bárbara 01:26
4. Techno Mierda 05:33
5. Puta Envidia 04:55
6. The Cult Of Satan 05:31
7. Skin Dead 03:31
8. Los Ángeles 04:22
9. Sensación De Morir 03:52
10. Govierno Chupón 00:24
11. El Calzonazos 04:38
12. Marginado Y Moskeado 03:20
13. Overdose 03:00
14. Rap de la Patata 02:03
15. Desintroduccion 01:47
******************************
Total playing time: 55:16

Technical info
(IMG:http://metalarea.org/images/spectrogram/2017_Dec/e31a6d2a764ca834f5cf7a51f8c0ec45.png)
Input File: 01-Especie Superior.mp3
Channels : 2
Sample Rate : 44100
Precision : 16-bit
Duration : 00:04:53.33 = 12935677 samples = 21999.5 CDDA sectors
File Size : 7.04M
Bit Rate : 192k
Sample Encoding: MPEG audio (layer I, II or III)
Comments :
Title=Especie Superior
Artist=Karne de Zerdo (Spa)
Album=Violenzia Gorrina
Tracknumber=01
Year=1994
Genre=Metal



Register


Вернуться к началу страницы
  Insert nick Quick quote
+Цитировать сообщение

ОтветитьСоздать новую тему
2 User(s) are reading this topic (2 Guests and 0 Anonymous Users)
0 Members:

 



- Lo-Fi Version Support form
Copyrights and abuse reports form
Time is now: 22nd May 2018 - 20:29:06