Welcome Guest ( Log In | Register )

 
Reply to this topicStart new topic
> Myself Am Hell - The World I Died For [ep] (1999), Death Metal
post Dec 31 2017, 08:59:37
Post #1

Подвал
**************
Group: Металариец
Posts: 12,301
Releases: 6935
From: Far East (Khabarovsk)
On Forums: 9 years 6 months
Thanks: 63468 time(s)
Russian Federation


(IMG:http://metalarea.org/images/audiocovers/2017_Dec/acov_tid299932_thumb.jpg)

*Artist: Myself Am Hell
*Album: The World I Died For [ep]
*Year: 1999
*Genre: Death Metal
*Country: United States (IMG:http://metalarea.org/forum/style_images/flags/United%20States.png)
*Format: mp3@CBR192kbps
*Size: 34MB

Tracklist:
1. Exorcism Of God 03:20
2. I Remain 03:47
3. Cowardly Demise 03:18
4. From Death I Arise 05:07
5. The World I Died For 05:01
6. Tornado Of Souls (Megadeth cover) 05:01
******************************
Total playing time: 25:34

Extended info
Band from Merrick, New York.


Technical info
(IMG:http://metalarea.org/images/spectrogram/2017_Dec/3a1989d830d56672f69ae8d248f1db9d.png)
Input File: 01-Exorcism of God.mp3
Channels : 2
Sample Rate : 44100
Precision : 16-bit
Duration : 00:03:19.33 = 8790497 samples = 14949.8 CDDA sectors
File Size : 4.78M
Bit Rate : 192k
Sample Encoding: MPEG audio (layer I, II or III)
Comments :
Title=Exorcism of God
Artist=Myself Am Hell (US)
Album=The World I Died For
Tracknumber=01
Year=1999
Genre=Death Metal



Register


Go to the top of the page
  Insert nick Quick quote
+Quote Post

Reply to this topicStart new topic
1 User(s) are reading this topic (1 Guests and 0 Anonymous Users)
0 Members:

 



- Lo-Fi Version Support form
Copyrights and abuse reports form
Time is now: 16th August 2018 - 23:20:49