Welcome Guest ( Log In | Register )

> И неформату есть предел.

Рэп/хип-хоп/шансон/поп удаляются. Для них есть свои порталы.

 
ОтветитьСоздать новую тему
> Genocide Organ - Civilization [compilation] (2017), Death Industrial/Power Electronics (D6)
post Dec 31 2017, 13:58:28
Post #1

As Above, so Below
***********
Group: Металариец
Posts: 1,859
Releases: 17
On Forums: 8 years 5 months
Thanks: 3670 time(s)
Russian Federation


(IMG:http://metalarea.org/images/audiocovers/2017_Dec/acov_tid299943_thumb.jpg)

*Artist: Genocide Organ
*Album: Civilization [compilation]
*Year: 2017
*Genre: Death Industrial/Power Electronics
*Country: Germany (IMG:http://metalarea.org/forum/style_images/flags/Germany.png)
*Format: mp3@CBR320kbps
*Size: 264MB

Tracklist:
CD1:
1. Death With Dignity 4:51
2. I Want James Meredith 3:50
3. John Birch Society 4:02
4. Kill Useless Nations 4:51
5. Patria Y Libertad 11:41
6. Violent Coordinating Committee 5:23
7. Dogday 7:09
8. R.F. And His Law 2:28
9. Weg Der Verlorenen 4:26
10. TonTon Macoutes 3:14
11. Klan Kountry 5:41
12. We Grow 5:25
13. Search A Place To Die 6:01
CD2:
1. Live At Lever Sunlicht/Mannheim 15.12.90 49:25
******************************
Total playing time: 1:58:27

Extended info
Limited first edition comes as deluxe linenpaper covered, foilblocked and debossed Hard-Slipcase, incl. Coverpak with double CD and extensive large 24p booklet. Only this first edition comes as special Hard-Slipcase Set with the additional Live CD. The CDs come in A5 digipak in hardbook slider. Contains A5 booklet.
CD 2 is indexed as one track.

1-1 to 1-6: Reissue of Save Our Slaves
1-7: Previously released on Various - Exploration One.
1-8: Previously released on Various - Trans-Action.
1-9 Previously released on Various - Natural Order.
1-10: Previously released on Various - The Sound Of Hate, Volume 7: Germany.
1-11 and 1-12: Previously released on Genocide Organ Klan Kountry.
1-13: Previously released on Various - Perpetual State Of Oracular Dream.

2017. Tesco Organisation


Technical info
(IMG:http://metalarea.org/images/spectrogram/2017_Dec/c1105455af4008348c8ff406700ac717.png)
Input File: 07 - Dogday.mp3
Channels : 2
Sample Rate : 44100
Precision : 16-bit
Duration : 00:07:09.60 = 18945404 samples = 32220.1 CDDA sectors
File Size : 17.2M
Bit Rate : 321k
Sample Encoding: MPEG audio (layer I, II or III)
Comments :
Title=Dogday
Artist=Genocide Organ
Album=Civilization
Tracknumber=07
Year=2017
Genre=Death Industrial/Power Electronics



Register


Вернуться к началу страницы
  Insert nick Quick quote
+Цитировать сообщение

ОтветитьСоздать новую тему
1 User(s) are reading this topic (1 Guests and 0 Anonymous Users)
0 Members:

 



- Lo-Fi Version Support form
Copyrights and abuse reports form
Time is now: 22nd May 2018 - 18:52:56