Welcome Guest ( Log In | Register )

 
Reply to this topicStart new topic
> Cunt Cuntly & Vulvodynia & Before The Harvest & Bationmaster & The Cake Is A Lie & Cerebus - Slashing Through The Snow [split] (2014), Death Metal
post Dec 31 2017, 22:04:33
Post #1

Попсовик от брутала
**************
Group: Металариец
Posts: 6,351
Releases: 60
From: Минск
On Forums: 9 years 11 months
Thanks: 5219 time(s)
Belarus


(IMG:http://metalarea.org/images/audiocovers/2017_Dec/acov_tid299957_thumb.jpg)

*Artist: Cunt Cuntly & Vulvodynia & Before The Harvest & Bationmaster & The Cake Is A Lie & Cerebus
*Album: Slashing Through The Snow [split]
*Year: 2014
*Genre: Progressive Deathcore | Brutal Death Metal | Deathcore | Brutal Death Metal/Deathcore | Deathcore | Deathcore
*Country: United States (IMG:http://metalarea.org/forum/style_images/flags/United%20States.png) | South Africa (IMG:http://metalarea.org/forum/style_images/flags/South%20Africa.png) | Australia (IMG:http://metalarea.org/forum/style_images/flags/Australia.png) | United Kingdom (IMG:http://metalarea.org/forum/style_images/flags/United%20Kingdom.png) | South Africa (IMG:http://metalarea.org/forum/style_images/flags/South%20Africa.png) | United States (IMG:http://metalarea.org/forum/style_images/flags/United%20States.png)
*Format: mp3@CBR128kbps (IMG:http://metalarea.org/images/bit_low.gif)
*Size: 37MB

Tracklist:
1. Vulvodynia - 'Twas the Night Before Crushmas 04:10
2. Bationmaster - Happy Birthday Jesus 04:09
3. Before the Harvest - 12 Slays of Christmas 03:08
4. The Cake Is a Lie - Merry Muthafuckin' Christmas 02:38
5. Cerebus - Satan Bells 03:08
6. Cunt Cuntly - Frosty the Snowman 03:37
7. Cunt Cuntly - All I Want for Christmas Is You (Mariah Carey cover) 04:40
******************************
Total playing time: 25:30

Technical info
(IMG:http://metalarea.org/images/spectrogram/2017_Dec/f809947d80e526c5e05e23f53cd6db18.png)
Input File: 01 Vulvodynia - Twas The Night Before Crushmas.mp3
Channels : 2
Sample Rate : 44100
Precision : 16-bit
Duration : 00:04:10.49 = 11046433 samples = 18786.5 CDDA sectors
File Size : 4.42M
Bit Rate : 141k
Sample Encoding: MPEG audio (layer I, II or III)
Comments :
Title=Twas The Night Before Crushmas
Artist=Vulvodynia
Album=Slashing Through The Snow
Tracknumber=1
Year=2014



Register


Thanks:
Go to the top of the page
  Insert nick Quick quote
+Quote Post

Reply to this topicStart new topic
1 User(s) are reading this topic (1 Guests and 0 Anonymous Users)
0 Members:

 



- Lo-Fi Version Support form
Copyrights and abuse reports form
Time is now: 19th November 2018 - 18:35:21