Welcome Guest ( Log In | Register )

> И неформату есть предел.

Рэп/хип-хоп/шансон/поп удаляются. Для них есть свои порталы.

> Kumulonimbus - Sarxphagein #2 (2017), Dark Ambient
post Jan 1 2018, 16:27:16
Post #1

Маньяк
**********
Group: Металариец
Posts: 1,235
Releases: 948
From: Prešov
On Forums: 4 years 1 month
Thanks: 22002 time(s)
Slovakia


(IMG:http://metalarea.org/images/audiocovers/2018_Jan/acov_tid299969_thumb.jpg)

*Artist: Kumulonimbus
*Album: Sarxphagein #2
*Year: 2017
*Genre: Dark Ambient
*Country: Sweden (IMG:http://metalarea.org/forum/style_images/flags/Sweden.png)
*Format: mp3@CBR320kbps
*Size: 91MB

Tracklist:
A1 Elemente
A2 Halsgriff Sleipnir
A3 Roots Of Three
A4 The Spinning Cross
A5 Wotan's Cleansing Gesture
A6 Tresure Of The Quadrature
A7 The Inauguration Stage
A8 Urhorn
A9 Schere Der Norne Skuld
A10 Yrr
A11 Alchemy Of The Sun
A12 Roots In The Sky
******************************
Total playing time: 28:26



Extended info
Tape with art-zine
Tape-rip


Technical info
(IMG:http://metalarea.org/images/spectrogram/2018_Jan/85e39441d6163235d15ec0af6bcfd81a.png)
Input File: A02. Halsgriff Sleipnir.mp3
Channels : 2
Sample Rate : 48000
Precision : 16-bit
Duration : 00:02:20.88 = 6762384 samples ~ 10566.2 CDDA sectors
File Size : 6.02M
Bit Rate : 342k
Sample Encoding: MPEG audio (layer I, II or III)
Comments :
Title=Halsgriff Sleipnir
Artist=Kumulonimbus
Album=Sarxphagein #2
Tracknumber=02/24
Year=2017
Genre=Ambient



Register


Вернуться к началу страницы
  Insert nick Quick quote
+Цитировать сообщение
 
Создать новую тему
Replies (1 - 1)
post Jan 4 2018, 20:58:12
Post #2

Satan bless you!
**************
Group: Металариец
Posts: 3,057
Releases: 63
From: Москва
On Forums: 9 years 10 months
Thanks: 2673 time(s)
Russian Federation


Проект Wulkanaz
https://www.discogs.com/artist/2314582-Kumulonimbus
Вернуться к началу страницы
  Insert nick Quick quote
+Цитировать сообщение

ОтветитьСоздать новую тему
2 User(s) are reading this topic (2 Guests and 0 Anonymous Users)
0 Members:

 



- Lo-Fi Version Support form
Copyrights and abuse reports form
Time is now: 20th May 2018 - 15:00:52