Welcome Guest ( Log In | Register )

> Правила / Rules

Тут только для чтения лежат низкобитрейтные (<192kbps) релизы, для которых есть аналоги в высокобитрейтных форумах.

Here goes (and stand in read only mode) low bitrate releases (<192kbps) which were already replaced by high bitrate releases in corresponding forums.

> Grafvitnir - Keys To The Mysteries Beyond (2017), Melodic Black Metal (D5)
post Jan 1 2018, 18:05:15
Post #1

ZEHTAN!
*****
Group: Металариец
Posts: 453
Releases: 21
From: Germany
On Forums: 11 years 11 months
Thanks: 750 time(s)
Germany


(IMG:http://metalarea.org/images/audiocovers/2018_Jan/acov_tid299978_thumb.jpg)

*Artist: Grafvitnir
*Album: Keys To The Mysteries Beyond
*Year: 2017
*Genre: Melodic Black Metal
*Country: Sweden (IMG:http://metalarea.org/forum/style_images/flags/Sweden.png)
*Format: mp3@ABR175kbps (IMG:http://metalarea.org/images/bit_low.gif)
*Size: 52MB

Tracklist:
01. Nidhögg 05:42
02. Key To The Mysteries Beyond 04:26
03. Vargavinter 05:38
04. Crossing The Abyss 01:38
05. Eternity's Glistening Black 04:04
06. Journey Into Storms 01:41
07. Unleash The Storm Of Nothingness 03:53
08. Eye Of Lucifer 05:28
09. Whispers Of The Primordial Sea 04:23
10. Glimpses Of The Unseeable 05:01
******************************
Total playing time: 41:55

Extended info
Password: metalarea.org

Enjoy!
(IMG:style_emoticons/default/smile1.gif)


Technical info
(IMG:http://metalarea.org/images/spectrogram/2018_Jan/b7709222c44ceb17ca657233a9d733ce.png)
Input File: 01-Nidhoegg.mp3
Channels : 2
Sample Rate : 44100
Precision : 16-bit
Duration : 00:05:42.86 = 15119994 samples = 25714.3 CDDA sectors
File Size : 7.51M
Bit Rate : 175k
Sample Encoding: MPEG audio (layer I, II or III)
Comments :
Title=Nidhögg
Artist=Grafvitnir
Album=Keys To The Mysteries Beyond
Tracknumber=1/10
Year=2017
Genre=Black Metal



Register


Вернуться к началу страницы
  Insert nick Quick quote
+Цитировать сообщение
 
Создать новую тему
Replies (1 - 4)
post Jan 5 2018, 06:46:48
Post #2

Три Литра
***
Group: Завсегдатай
Posts: 203
Releases: 1
From: Canada
On Forums: 4 years 6 months
Thanks: 353 time(s)
Canada


Main link still works but couldn't open the archive for some reason.
Register
Вернуться к началу страницы
  Insert nick Quick quote
+Цитировать сообщение
post Jan 5 2018, 10:10:05
Post #3

ZEHTAN!
*****
Group: Металариец
Posts: 453
Releases: 21
From: Germany
On Forums: 11 years 11 months
Thanks: 750 time(s)
Germany


no problems here! downloaded and unpacked it three times..

make sure you're using the latest winrar version (v5.50)
Вернуться к началу страницы
  Insert nick Quick quote
+Цитировать сообщение
post Jan 5 2018, 16:23:58
Post #4

Group: Дух
Posts: 1
Releases: 0
On Forums: 6 months 1 week
Thanks: 0 time(s)
United States


What's is the password for the archive?
Вернуться к началу страницы
  Insert nick Quick quote
+Цитировать сообщение
post Jan 5 2018, 17:07:55
Post #5

ZEHTAN!
*****
Group: Металариец
Posts: 453
Releases: 21
From: Germany
On Forums: 11 years 11 months
Thanks: 750 time(s)
Germany


QUOTE(legionz @ Jan 5 2018, 16:23:58) *
What's is the password for the archive?



startpost->extended info.
Вернуться к началу страницы
  Insert nick Quick quote
+Цитировать сообщение

Причина закрытия (Borderline1991 22-01-2018): Grafvitnir - Keys To The Mysteries Beyond (2017)
Тема закрытаСоздать новую тему
1 User(s) are reading this topic (1 Guests and 0 Anonymous Users)
0 Members:

 



- Lo-Fi Version Support form
Copyrights and abuse reports form
Time is now: 20th February 2018 - 06:59:45