Welcome Guest ( Log In | Register )

 
ОтветитьСоздать новую тему
> Red Beast - 12 Songs From Hell... (2017), Heavy/Thrash Metal
post Jan 1 2018, 23:44:26
Post #1

Аннигилятор пивА
Group Icon
Group: V.I.P
Posts: 46,692
Releases: 14016
From: Koenigsberg - TILZIT
On Forums: 11 years 11 months
Thanks: 310863 time(s)
Russian Federation


(IMG:http://metalarea.org/images/audiocovers/2018_Jan/acov_tid299987_thumb.jpg)

*Artist: Red Beast
*Album: 12 Songs From Hell...
*Year: 2017
*Genre: Heavy/Thrash Metal
*Country: United States (IMG:http://metalarea.org/forum/style_images/flags/United%20States.png)
*Format: mp3@CBR320kbps
*Size: 151MB

Tracklist:
01. The Little Big Bang
02. Generation Z
03. Lucifer, Reborn
04. Hell Know
05. Fuck Yeah
06. Kill the Man
07. Fatherless Creation
08. Hahalalalelujah
09. Plastic-Clad Pleather Demon
10. "W."Ar
11. Devilution
12. The Final Resolution
******************************
Total playing time: 1:09:00




Extended info
Adolf Christ - Prophetic Tongue Lashings and Conjurations of the Serpent
True Man! - Dead Skin Bashings with Shimmering Machetes
Pleatherface - Vegan Serial Killing Feast of the Bottom End & additional head voices/ball vices


Technical info
(IMG:http://metalarea.org/images/spectrogram/2018_Jan/a02de5e412e7fa513fb90906eb78503b.png)
Input File: 07 Fatherless Creation.mp3
Channels : 2
Sample Rate : 44100
Precision : 16-bit
Duration : 00:05:52.19 = 15531667 samples = 26414.4 CDDA sectors
File Size : 14.2M
Bit Rate : 322k
Sample Encoding: MPEG audio (layer I, II or III)
Comments :
Title=Fatherless Creation
Artist=Red Beast
Album=12 Songs from Hell...
Tracknumber=7/12
Year=2017
Genre=9
Discnumber=1/1



Register


Вернуться к началу страницы
  Insert nick Quick quote
+Цитировать сообщение

ОтветитьСоздать новую тему
2 User(s) are reading this topic (2 Guests and 0 Anonymous Users)
0 Members:

 



- Lo-Fi Version Support form
Copyrights and abuse reports form
Time is now: 22nd May 2018 - 20:34:37