Welcome Guest ( Log In | Register )

> И неформату есть предел.

Рэп/хип-хоп/шансон/поп удаляются. Для них есть свои порталы.

 
ОтветитьСоздать новую тему
> Blurry Lights - Our New World (2018), Post-Rock/Modern Classical (D7)
post Jan 2 2018, 08:47:51
Post #1

Group: Подсевший
Posts: 14
Releases: 7
On Forums: 1 year 3 days
Thanks: 154 time(s)
Unknown


(IMG:http://metalarea.org/images/audiocovers/2018_Jan/acov_tid299993_thumb.jpg)

*Artist: Blurry Lights
*Album: Our New World
*Year: 2018
*Genre: Post-Rock/Modern Classical
*Country: Russian Federation (IMG:http://metalarea.org/forum/style_images/flags/Russian%20Federation.png)
*Format: mp3@CBR320kbps
*Size: 77MB

Tracklist:
1. The Changing of Times - An Introduction 01:17
2. We All Get Somewhere 03:08
3. Soulmate 02:58
4. Our New World 03:05
5. Sparkling Eyes 02:47
6. Embrace the Skies 03:41
7. Sunshine in December 04:33
8. Strange Dream 02:17
9. Holidays 04:01
10. The Frozen Waterfall 02:56
11. Mountain's Soul 02:44
******************************
Total playing time: 33:27



Technical info
(IMG:http://metalarea.org/images/spectrogram/2018_Jan/7ef9dbf82771b3a5d061257e80007aca.png)
Input File: 09 Holidays.mp3
Channels : 2
Sample Rate : 44100
Precision : 16-bit
Duration : 00:04:01.16 = 10635244 samples = 18087.1 CDDA sectors
File Size : 9.65M
Bit Rate : 320k
Sample Encoding: MPEG audio (layer I, II or III)
Comments :
Title=Holidays
Artist=Blurry Lights
Album=Our New World
Tracknumber=9
Year=2018



Register


Вернуться к началу страницы
  Insert nick Quick quote
+Цитировать сообщение

ОтветитьСоздать новую тему
1 User(s) are reading this topic (1 Guests and 0 Anonymous Users)
0 Members:

 



- Lo-Fi Version Support form
Copyrights and abuse reports form
Time is now: 19th February 2018 - 08:51:56