Welcome Guest ( Log In | Register )

 
Reply to this topicStart new topic
> Gratzug - Gletscherklang [ep] (2017), Atmospheric Black Metal (D)
post Jan 2 2018, 15:01:33
Post #1

Восемь Литров
********
Group: Металариец
Posts: 804
Releases: 674
From: Новороссийск
On Forums: 7 years 3 months
Thanks: 11461 time(s)
Russian Federation


(IMG:https://metalarea.org/images/audiocovers/2018_Jan/acov_tid299996_thumb.jpg)

*Artist: Gratzug
*Album: Gletscherklang [ep]
*Year: 2017
*Genre: Atmospheric Black Metal
*Country: Germany (IMG:https://metalarea.org/forum/style_images/flags/Germany.png)
*Format: mp3@CBR320kbps
*Size: 57MB

Tracklist:
01. Grollen 06:48
02. Posternächten 05:06
03. Wandelt Wieder 07:23
04. Kreis Der Schuld 05:33
******************************
Total playing time: 24:50



Extended info
в лоу


Technical info
(IMG:https://metalarea.org/images/spectrogram/2018_Jan/90aaf8b0c33420ca687984d37c3c7bea.png)
Input File: 01. Grollen.mp3
Channels : 2
Sample Rate : 44100
Precision : 16-bit
Duration : 00:06:48.86 = 18030594 samples = 30664.3 CDDA sectors
File Size : 16.4M
Bit Rate : 320k
Sample Encoding: MPEG audio (layer I, II or III)
Comments :
Title=Grollen
Artist=Gratzug
Album=Gletscherklang
Tracknumber=01
Year=2017
Genre=Black Metal



Register


Go to the top of the page
  Insert nick Quick quote
+Quote Post

Reply to this topicStart new topic
1 User(s) are reading this topic (1 Guests and 0 Anonymous Users)
0 Members:

 



- Lo-Fi Version Support form
Copyrights and abuse reports form
Time is now: 17th August 2018 - 14:17:59