Welcome Guest ( Log In | Register )

> И неформату есть предел.

Рэп/хип-хоп/шансон/поп удаляются. Для них есть свои порталы.

> Mortiis - Throe [ep] (2016), Dark Ambient/Experimental (D19)
post Jan 2 2018, 23:25:10
Post #1

Маньяк
**********
Group: Металариец
Posts: 1,189
Releases: 66
From: Tehran
On Forums: 7 years 10 months
Thanks: 2052 time(s)
Iran


(IMG:https://metalarea.org/images/audiocovers/2018_Jan/acov_tid300007_thumb.jpg)

*Artist: Mortiis
*Album: Throe [ep]
*Year: 2016
*Genre: Dark Ambient/Experimental
*Country: Norway (IMG:https://metalarea.org/forum/style_images/flags/Norway.png)
*Format: mp3@CBR320kbps
*Size: 24MB

Tracklist:
01. Atone 01:08
02. Psychosphere 01:07
03. Scab 00:34
04. Worship 01:40
05. Scathe 01:26
06. Phantom 01:29
07. Throe 01:22
08. The Ringeling 01:25
******************************
Total playing time: 10:11

Extended info
Exclusive EP given out to fans who ordered The Great Deceiver-sets.
https://www.discogs.com/Mortiis-Throe/release/8600941

Experimental Dark Ambient and somehow Industrial sketches, personally reminding me of some of David Lynch's masterpieces soundtracks composed by Angelo Badalamenti - especially the "Twin Peaks" series.


Technical info
(IMG:https://metalarea.org/images/spectrogram/2018_Jan/9f02a5287942f75da428c2fcf2d7e306.png)
Input File: 07. Throe.mp3
Channels : 2
Sample Rate : 48000
Precision : 16-bit
Duration : 00:01:22.44 = 3957264 samples ~ 6183.22 CDDA sectors
File Size : 3.37M
Bit Rate : 327k
Sample Encoding: MPEG audio (layer I, II or III)
Comments :
Title=Throe
Artist=Mortiis ‎
Album=Throe [EP]
Tracknumber=07/08
Year=2016
Genre=Dark Ambient, Industrial, Experimental



Register


Вернуться к началу страницы
  Insert nick Quick quote
+Цитировать сообщение
 
Создать новую тему
Replies (1 - 1)
post Jan 12 2018, 13:06:35
Post #2

Group: Подсевший
Posts: 32
Releases: 0
On Forums: 9 months 2 weeks
Thanks: 2 time(s)
Unknown


друзья, киньте другую ссыль!!!
Вернуться к началу страницы
  Insert nick Quick quote
+Цитировать сообщение

ОтветитьСоздать новую тему
1 User(s) are reading this topic (1 Guests and 0 Anonymous Users)
0 Members:

 



- Lo-Fi Version Support form
Copyrights and abuse reports form
Time is now: 19th February 2018 - 08:51:03