Welcome Guest ( Log In | Register )

> И неформату есть предел.

Рэп/хип-хоп/шансон/поп удаляются. Для них есть свои порталы.

 
ОтветитьСоздать новую тему
> Melankolia - Vividarium Intervigilium Viator (2017), Neo-Classical/Dark Ambient
post Jan 3 2018, 11:17:12
Post #1

Аннигилятор пивА
Group Icon
Group: V.I.P
Posts: 46,692
Releases: 14016
From: Koenigsberg - TILZIT
On Forums: 11 years 11 months
Thanks: 310862 time(s)
Russian Federation


(IMG:https://metalarea.org/images/audiocovers/2018_Jan/acov_tid300021_thumb.jpg)

*Artist: Melankolia
*Album: Vividarium Intervigilium Viator
*Year: 2017
*Genre: Neo-Classical/Dark Ambient
*Country: United States (IMG:https://metalarea.org/forum/style_images/flags/United%20States.png)
*Format: mp3@CBR320kbps
*Size: 155MB

Tracklist:
01. Ambrosia 06:30
02. Nyctophilia 06:30
03. The Crowning of Autumn 06:18
04. Between Heaven and Hell 09:04
05. In the Garden Sleeps a Messenger 08:24
06. Wellspring Labyrinth (Left Hand 'til Mourning) 06:06
07. Requiem 11:36
08. Melankolia 02:48
09. The Murmur (Succour Midst Sorrow) 05:00
10. Annie, Light in A Dying World 04:48
******************************
Total playing time: 1:07:04



Extended info
Founded by musician Mike O’Brien, (Appalachian Winter, Veiled Monk, Ritual in Ash) Melankolia has been releasing introspective and thoughtful music since the project’s beginnings nearly 10 years ago.



Technical info
(IMG:https://metalarea.org/images/spectrogram/2018_Jan/a58ca8f02bf865e29ab48112bf92d9bf.png)
Input File: Melankolia - Vividarium Intervigilium Viator - 02 Nyctophilia.mp3
Channels : 2
Sample Rate : 44100
Precision : 16-bit
Duration : 00:06:30.96 = 17241292 samples = 29321.9 CDDA sectors
File Size : 15.8M
Bit Rate : 323k
Sample Encoding: MPEG audio (layer I, II or III)
Comments :
Title=Nyctophilia
Artist=Melankolia
Album=Vividarium Intervigilium Viator
Tracknumber=2
Year=2017



Register


Thanks:
Вернуться к началу страницы
  Insert nick Quick quote
+Цитировать сообщение

ОтветитьСоздать новую тему
1 User(s) are reading this topic (1 Guests and 0 Anonymous Users)
0 Members:

 



- Lo-Fi Version Support form
Copyrights and abuse reports form
Time is now: 22nd May 2018 - 18:51:58