Welcome Guest ( Log In | Register )

 
Reply to this topicStart new topic
> Formicide - Demo-logy 1987-1989 [best of/compilation] (2017), Thrash Metal (D)
post Jan 4 2018, 05:14:23
Post #1

Подвал
**************
Group: Металариец
Posts: 12,301
Releases: 6935
From: Far East (Khabarovsk)
On Forums: 9 years 6 months
Thanks: 63491 time(s)
Russian Federation


(IMG:http://metalarea.org/images/audiocovers/2018_Jan/acov_tid300052_thumb.jpg)

*Artist: Formicide
*Album: Demo-logy 1987-1989 [best of/compilation]
*Year: 2017
*Genre: Thrash Metal
*Country: United States (IMG:http://metalarea.org/forum/style_images/flags/United%20States.png)
*Format: mp3@CBR320kbps
*Size: 107MB

Tracklist:
1. The Omen 03:25
2. Perfect Race 04:47
3. Them 04:41
4. The Spell 03:16
5. Frozen Death 02:19
6. No Escape 03:00
7. Await The Awakening 03:52
8. Dead Man 03:40
9. Prey To Pieces 03:45
10. Dying System 04:13
11. Platten #2 04:13
12. Nocturnal Justice 04:10
******************************
Total playing time: 45:21

(IMG:http://metalarea.org/images/myspace.png)

Extended info
Band from Tewksbury, Massachusetts.
A tribute to Eric Stevenson released by Dark Symphonies.
Tracks 1-4 are from the '87 demo.
Tracks 5-8 are from the '88 demo.
Tracks 9-12 are from the '89 demo.


Technical info
(IMG:http://metalarea.org/images/spectrogram/2018_Jan/724c55e3eab68f7986f937a67bfcc743.png)
Input File: 01-The Omen.mp3
Channels : 2
Sample Rate : 44100
Precision : 16-bit
Duration : 00:03:23.68 = 8982244 samples = 15275.9 CDDA sectors
File Size : 8.15M
Bit Rate : 320k
Sample Encoding: MPEG audio (layer I, II or III)
Comments :
Title=The Omen
Artist=Formicide (US, MS)
Album=Demo-logy 1987-1989
Tracknumber=01
Year=2017
Genre=Thrash Metal



Register


Go to the top of the page
  Insert nick Quick quote
+Quote Post

Reply to this topicStart new topic
1 User(s) are reading this topic (1 Guests and 0 Anonymous Users)
0 Members:

 



- Lo-Fi Version Support form
Copyrights and abuse reports form
Time is now: 17th August 2018 - 14:17:09