Welcome Guest ( Log In | Register )

 
ОтветитьСоздать новую тему
> Mortal Void - Spiritual Misguidance [demo] (2000), Death Metal
post Jan 4 2018, 05:39:39
Post #1

Подвал
**************
Group: Металариец
Posts: 12,095
Releases: 6814
From: Far East (Khabarovsk)
On Forums: 9 years 3 months
Thanks: 62197 time(s)
Russian Federation


(IMG:http://metalarea.org/images/audiocovers/2018_Jan/acov_tid300053_thumb.jpg)

*Artist: Mortal Void
*Album: Spiritual Misguidance [demo]
*Year: 2000
*Genre: Death Metal
*Country: Greece (IMG:http://metalarea.org/forum/style_images/flags/Greece.png)
*Format: mp3@CBR192kbps
*Size: 17MB

Tracklist:
1. Unleashed And Free (Instrumental) 03:32
2. Awakes By Your Fear 03:50
3. Spiritual Misguidance 04:03
4. 08-45 AM 01:36
******************************
Total playing time: 13:01

Technical info
(IMG:http://metalarea.org/images/spectrogram/2018_Jan/02287eebde4de251e7c4949288b9985d.png)
Input File: 02-Awakes By Your Fear.mp3
Channels : 2
Sample Rate : 44100
Precision : 16-bit
Duration : 00:03:50.37 = 10159185 samples = 17277.5 CDDA sectors
File Size : 5.53M
Bit Rate : 192k
Sample Encoding: MPEG audio (layer I, II or III)
Comments :
Title=Awakes By Your Fear
Artist=Mortal Void (Gre)
Album=Spiritual Misguidance
Tracknumber=02
Year=2000
Genre=Death Metal



Register


Вернуться к началу страницы
  Insert nick Quick quote
+Цитировать сообщение

ОтветитьСоздать новую тему
1 User(s) are reading this topic (1 Guests and 0 Anonymous Users)
0 Members:

 



- Lo-Fi Version Support form
Copyrights and abuse reports form
Time is now: 26th May 2018 - 05:24:41