Welcome Guest ( Log In | Register )

 
ОтветитьСоздать новую тему
> Septicaemia - Premières Souffrances [demo] (2002), Death Metal (D5)
post Jan 4 2018, 05:46:42
Post #1

Подвал
**************
Group: Металариец
Posts: 11,779
Releases: 6654
From: Far East (Khabarovsk)
On Forums: 9 years 3 weeks
Thanks: 60322 time(s)
Russian Federation


(IMG:http://metalarea.org/images/audiocovers/2018_Jan/acov_tid300054_thumb.jpg)

*Artist: Septicaemia
*Album: Premières Souffrances [demo]
*Year: 2002
*Genre: Death Metal
*Country: France (IMG:http://metalarea.org/forum/style_images/flags/France.png)
*Format: mp3@CBR192kbps
*Size: 18MB

Tracklist:
1. Pictures Of Insanity 04:10
2. The Hateful Ego 02:56
3. Dreadful Removal 02:40
4. Umbilcal Strangulation 03:36
******************************
Total playing time: 13:22

Technical info
(IMG:http://metalarea.org/images/spectrogram/2018_Jan/250e79f54bfd744ab0a0cbd81fb2d90f.png)
Input File: 01-Pictures of Insanity.mp3
Channels : 2
Sample Rate : 44100
Precision : 16-bit
Duration : 00:04:10.35 = 11040523 samples = 18776.4 CDDA sectors
File Size : 6.01M
Bit Rate : 192k
Sample Encoding: MPEG audio (layer I, II or III)
Comments :
Title=Pictures of Insanity
Artist=Septicaemia (Fra)
Album=PremiГЁres Souffrances...
Tracknumber=01
Year=2002
Genre=Death Metal



Register


Вернуться к началу страницы
  Insert nick Quick quote
+Цитировать сообщение

ОтветитьСоздать новую тему
1 User(s) are reading this topic (1 Guests and 0 Anonymous Users)
0 Members:

 



- Lo-Fi Version Support form
Copyrights and abuse reports form
Time is now: 21st February 2018 - 19:40:48