Welcome Guest ( Log In | Register )

 
Reply to this topicStart new topic
> Quick Fever - Quick Demo [demo] (1988), Heavy/Speed Metal
post Jan 4 2018, 06:54:34
Post #1

Подвал
**************
Group: Металариец
Posts: 12,301
Releases: 6935
From: Far East (Khabarovsk)
On Forums: 9 years 6 months
Thanks: 63491 time(s)
Russian Federation


(IMG:http://metalarea.org/images/audiocovers/2018_Jan/acov_tid300055_thumb.jpg)

*Artist: Quick Fever
*Album: Quick Demo [demo]
*Year: 1988
*Genre: Heavy/Speed Metal
*Country: United States (IMG:http://metalarea.org/forum/style_images/flags/United%20States.png)
*Format: mp3@CBR256kbps
*Size: 30MB

Tracklist:
1. Land Of Survival 03:33
2. World Of Fools 03:12
3. Edge Of The Forest 03:15
4. In The End 04:02
5. The Avenge 02:40
******************************
Total playing time: 16:42

Extended info
Band from Boston, Massachusetts.


Technical info
(IMG:http://metalarea.org/images/spectrogram/2018_Jan/36fbd9649a67a83d7fdb3d785567dd33.png)
Input File: 02-World Of Fools.mp3
Channels : 2
Sample Rate : 44100
Precision : 16-bit
Duration : 00:03:11.72 = 8454720 samples = 14378.8 CDDA sectors
File Size : 6.14M
Bit Rate : 256k
Sample Encoding: MPEG audio (layer I, II or III)
Comments :
Title=World Of Fools
Artist=Quick Fever (US, MS)
Album=Quick Demo
Tracknumber=02
Year=1988
Genre=Metal



Register


Go to the top of the page
  Insert nick Quick quote
+Quote Post

Reply to this topicStart new topic
1 User(s) are reading this topic (1 Guests and 0 Anonymous Users)
0 Members:

 



- Lo-Fi Version Support form
Copyrights and abuse reports form
Time is now: 17th August 2018 - 14:17:04