Welcome Guest ( Log In | Register )

 
Reply to this topicStart new topic
> Toxic Death - Es Lo Que Hay [demo] (1994), Death Metal
post Jan 4 2018, 07:41:08
Post #1

Подвал
**************
Group: Металариец
Posts: 12,301
Releases: 6935
From: Far East (Khabarovsk)
On Forums: 9 years 6 months
Thanks: 63491 time(s)
Russian Federation


(IMG:http://metalarea.org/images/audiocovers/2018_Jan/acov_tid300057_thumb.jpg)

*Artist: Toxic Death
*Album: Es Lo Que Hay [demo]
*Year: 1994
*Genre: Death Metal
*Country: Spain (IMG:http://metalarea.org/forum/style_images/flags/Spain.png)
*Format: mp3@CBR192kbps
*Size: 38MB

Tracklist:
1. Intro 03:20
2. Ni Un Dia Mas 03:48
3. La Abuela Tripis 02:53
4. Violencia En Las Calles 02:02
5. Monster Show 01:15
6. Triste Final 02:55
7. Amanecer En Bosnia 03:33
8. A Follar 00:12
9. La Obalada 02:47
10. Toxic Death 04:51
******************************
Total playing time: 27:36



Extended info
Recorded at the Belam Studios, Barakaldo in 1994.


Technical info
(IMG:http://metalarea.org/images/spectrogram/2018_Jan/d478b1f2a80e5968f02a77f14966c174.png)
Input File: 02-Ni Un Dia Mas.mp3
Channels : 2
Sample Rate : 44100
Precision : 16-bit
Duration : 00:03:48.83 = 10091227 samples = 17162 CDDA sectors
File Size : 5.49M
Bit Rate : 192k
Sample Encoding: MPEG audio (layer I, II or III)
Comments :
Title=Ni Un Dia Mas
Artist=Toxic Death (Spa)
Album=Es Lo Que Hay
Tracknumber=02
Year=1994
Genre=Death Metal



Register


Go to the top of the page
  Insert nick Quick quote
+Quote Post

Reply to this topicStart new topic
1 User(s) are reading this topic (1 Guests and 0 Anonymous Users)
0 Members:

 



- Lo-Fi Version Support form
Copyrights and abuse reports form
Time is now: 17th August 2018 - 14:17:17