Welcome Guest ( Log In | Register )

 
Reply to this topicStart new topic
> Warhawk - Death From Above [demo] (2008), Thrash Metal (D9)
post Jan 4 2018, 08:23:20
Post #1

Подвал
**************
Group: Металариец
Posts: 12,301
Releases: 6935
From: Far East (Khabarovsk)
On Forums: 9 years 6 months
Thanks: 63491 time(s)
Russian Federation


(IMG:http://metalarea.org/images/audiocovers/2018_Jan/acov_tid300058_thumb.jpg)

*Artist: Warhawk
*Album: Death From Above [demo]
*Year: 2008
*Genre: Thrash Metal
*Country: United States (IMG:http://metalarea.org/forum/style_images/flags/United%20States.png)
*Format: mp3@CBR192kbps
*Size: 17MB

Tracklist:
1. Hungry Are The Damned 03:05
2. Buckets Of Blood 02:13
3. Unholy Martyr 04:17
4. Laid To Waste 03:28
******************************
Total playing time: 13:03




Extended info
Band from York, Pennsylvania.


Technical info
(IMG:http://metalarea.org/images/spectrogram/2018_Jan/b431abba57cf5742f4093a930b1dab62.png)
Input File: 01-Hungry Are the Damned.mp3
Channels : 2
Sample Rate : 44100
Precision : 16-bit
Duration : 00:03:03.21 = 8079693 samples = 13741 CDDA sectors
File Size : 4.40M
Bit Rate : 192k
Sample Encoding: MPEG audio (layer I, II or III)
Comments :
Title=Hungry Are the Damned
Artist=Warhawk (US, PA)
Album=Death From Above
Tracknumber=01
Year=2008
Genre=Thrash Metal



Register


Thanks:
Go to the top of the page
  Insert nick Quick quote
+Quote Post

Reply to this topicStart new topic
1 User(s) are reading this topic (1 Guests and 0 Anonymous Users)
0 Members:

 



- Lo-Fi Version Support form
Copyrights and abuse reports form
Time is now: 17th August 2018 - 14:17:14