Welcome Guest ( Log In | Register )

 
Reply to this topicStart new topic
> Non Compos Mentis - You're Next Punk [demo] (1986), Crossover/Thrash Metal
post Jan 4 2018, 09:12:59
Post #1

Подвал
**************
Group: Металариец
Posts: 12,698
Releases: 7116
From: Far East (Khabarovsk)
On Forums: 9 years 9 months
Thanks: 66160 time(s)
Russian Federation


(IMG:http://metalarea.org/images/audiocovers/nocover.gif)

*Artist: Non Compos Mentis
*Album: You're Next Punk [demo]
*Year: 1986
*Genre: Crossover/Thrash Metal
*Country: Australia (IMG:http://metalarea.org/forum/style_images/flags/Australia.png)
*Format: mp3@CBR192kbps
*Size: 25MB

Tracklist:
1. The Ballad Of Phil Gresik 04:35
2. Kidney Punches 03:01
3. NCM 04:54
4. Excreter 02:50
5. Habeus Corpus 03:23
******************************
Total playing time: 18:43

Extended info
Consist of Hobbs' Angel of Death/Nothing Sacred members.


Technical info
(IMG:http://metalarea.org/images/spectrogram/2018_Jan/d36e1a2a70edda09eb57214eab0b150a.png)
Input File: 02-Kidney Punches.mp3
Channels : 2
Sample Rate : 44100
Precision : 16-bit
Duration : 00:03:01.93 = 8023245 samples = 13645 CDDA sectors
File Size : 4.37M
Bit Rate : 192k
Sample Encoding: MPEG audio (layer I, II or III)
Comments :
Title=Kidney Punches
Artist=Non Compos Mentis (Aussie)
Album=You're Next Punk
Tracknumber=02
Year=1986
Genre=Metal



Register


Thanks:
(2) Rosen, varlam4,
Go to the top of the page
  Insert nick Quick quote
+Quote Post

Reply to this topicStart new topic
1 User(s) are reading this topic (1 Guests and 0 Anonymous Users)
0 Members:

 



- Lo-Fi Version Support form
Copyrights and abuse reports form
Time is now: 20th November 2018 - 16:17:57