Welcome Guest ( Log In | Register )

 
Reply to this topicStart new topic
> Internment - Demo MMXVIII [demo] (2018), Black Metal
post Jan 4 2018, 10:01:37
Post #1

Семь Литров
*******
Group: Металариец
Posts: 782
Releases: 164
On Forums: 7 years 10 months
Thanks: 1973 time(s)
Albania


(IMG:https://metalarea.org/images/audiocovers/2018_Jan/acov_tid300062_thumb.jpg)

*Artist: Internment
*Album: Demo MMXVIII [demo]
*Year: 2018
*Genre: Black Metal
*Country: United States (IMG:https://metalarea.org/forum/style_images/flags/United%20States.png)
*Format: mp3@CBR128kbps (IMG:https://metalarea.org/images/bit_low.gif)
*Size: 10MB

Tracklist:
1.Black Rites of Hidden Gates 06:53
2.The Shadow Realm 03:51
******************************
Total playing time: 10:44



Technical info
(IMG:https://metalarea.org/images/spectrogram/2018_Jan/64cea8125591f4d0e7e981b2b56154a9.png)
Input File: 1 - Black Rites of Hidden Gates.mp3
Channels : 2
Sample Rate : 44100
Precision : 16-bit
Duration : 00:06:54.17 = 18264985 samples = 31062.9 CDDA sectors
File Size : 6.62M
Bit Rate : 128k
Sample Encoding: MPEG audio (layer I, II or III)



Register


Go to the top of the page
  Insert nick Quick quote
+Quote Post

Reply to this topicStart new topic
1 User(s) are reading this topic (1 Guests and 0 Anonymous Users)
0 Members:

 



- Lo-Fi Version Support form
Copyrights and abuse reports form
Time is now: 17th August 2018 - 14:17:19